发新帖  新投票  回帖 
58267个阅读者,5条回复 | 打印 | 订阅 | 收藏
情定雨杭

发表时间:2011-3-30 07:44

将映像、APE、FLAC、WAV等无损资源刻录成音频CD方法[转载]   



情定雨杭 发表在 高品质单曲 华声论坛 http://bbs.voc.com.cn/forum-236-1.html

CD音频刻录

一、下载的DTS CD的几种格式:
1. .APE + .CUE 文件 一个APE或多个APE
2. .WAV +. CUE 文件 一个WAV或多个WAV
3. .IMG + . CCD + SUB 文件
4. .NRG 文件
5. .MDS + .MDF 文件
6. .BIN + .CUE + .SUB文件
7. .ISO + .CUE 文件
8. .BWT 文件
9. .CDR文件
(注:*.MDS是MEDIA DEscriptOR 镜像文件,
用Alcohol 120%软件制作;*.ccd是CloneCD的镜像;*.nrg是NERO的镜像)

二、刻录方法:
1.对于第四、七、九种格式的,直接用NERO的刻录镜像文件功能刻录既可。
如果没有播放列表CUE文件的刻录方法 如果没有CUE播放列表,
就只能下载[APE插件APE Plugin for Nero]。
使用该插件可以让Nero直接刻录APE音乐。
解压nxMyAPE.dll到C:\PROGRAM FILES\COMMON FILES\AHEAD\AUDIOPLUGINS,启动Nero后就可以了!
安装了ape plugin for nero,就可以像用wav、mp3刻cd一样,直接在nero里拖放就成

2.对于第三、五、六种格式,
先用虚拟光驱软件Daemon tools 或 Alcohol 120 %将之虚拟成光盘,
然后用NERO的COPY CD功能进行刻录既可。

3.对于第一和第二种格式,用EAC刻录CDR功能,
先载入CUE目录文件,然后刻录既可。这种方法刻录里,
有时出现CUE文件不能打开错误,那就先用Monkey'; s 将APE文件解压缩成WAV文件,
如果只有一个APE文件,则在出现提示里,在第三行把.WAV改为APE点确定就可以刻录了。

4. 如果有多个APE文件或多个WAV文件,可以直接在EAC里,
选择布局里的作为新音轨文件追加,将所有的APE或WAV文件添加既可刻录。

三、cue文件的修复及制作方法
经常遇到下载的无损音乐因cue错误或者没有cue而不能欣赏,
下面,我来教大家完成cue的修改及制作过程,
体验亲手得到美妙音乐的乐趣。按如下步骤就可轻松完成,
如果原ape(或flac、wav)带有cue文件只是它有错误不能播放的话,
先别删它,直接用它来编辑就最简单了
(因为其中的时间点信息基本上都是正确的,而制作cue最麻烦的就是找时间点了)。

一、用记事本打开一个正确的cue文件,会得到类似如下的内容:
PERFORMER "Lara Fabian" ------------------------------------------------------ 1
TITLE "《9》" --------------------------------------------------------------------- 2
FILE "CDImage.ape" WAVE --------------------------------------------------- 3
TRACK 01 AUDIO -------------------------------------------------------------- 4
TITLE "La lettre" ------------------------------------------------------------- 5
PERFORMER "Lara Fabian" ------------------------------------------------- 6
INDEX 01 00:00:00 ----------------------------------------------------------- 7
TRACK 02 AUDIO -------------------------------------------------------------- 8
TITLE "Un ave maria" -------------------------------------------------------- 9
PERFORMER "Lara Fabian" -------------------------------------------------- 10
INDEX 00 03:52:57 ----------------------------------------------------------- 11
INDEX 01 03:52:99 ----------------------------------------------------------- 12
TRACK 03 AUDIO
TITLE "Si tu n'as pas d'amour"
PERFORMER "Lara Fabian"
INDEX 00 08:50:49
INDEX 01 08:50:65
TRACK 04 AUDIO
TITLE "Il ne manquait que toi"
PERFORMER "Lara Fabian"
INDEX 00 12:36:17
INDEX 01 12:40:19

[完毕]


注释:
1.该行引号内是歌唱家的名称,随便写也行
2.该行引号内是专辑名称,可以是任意字符
3.这一行是最容易出错的地方。
引号内是该ape或flac或wav文件的文件名,
注意要加上后缀且后缀不能错误,
如 “ CDImage.ape ”, 其中 “ .ape ” 为后缀名(一定要分清你下载的是ape还是flac还是wav),
很多时候cue错误就是因为后缀名错误引起的。

4.这一行是音轨序号,从上往下依次增加。

5.引号内内容是这首歌的歌名,会在列表中显示。

6.引号内内容是这首歌的演唱者,会在列表中显示。

7.这是这首歌在整个ape文件(或flac或wav文件)中开始的时间,
比如第一首的开始时间总是0分0秒,注意其格式,00(分):00(秒):00(百分秒)。

8.同第4个注释,音轨序号,这是第二首。

9.同5,这首歌的歌名。

10.同6,这首歌的演唱者。

11、12.这两行要一起说。这里的两行可以这样理解,
前一行是上首歌结束的时间,后一行是本首歌开始的时间。
两个时间相差很小,一般在一秒以内。
后面的各行就“依次类推”了。
在修改时要注意的是,

在第1,2,3,5,6行中能修改的只有引号里的内容,
其他的文字不能更改,引号本身也不可少。
在时间标签行(第7,11,12等行)中能修改的只有各个表示时间的数字,
其余的也不能更改,在做完这些修改后保存该cue文件

 
ST951022

回复时间:2012-2-1 09:54
谢谢分享

 
云海飞瀑

回复时间:2012-3-20 20:11
感激

 
那小子1987

回复时间:2016-1-29 23:00
谢谢分享

 
发新帖 新投票
 回帖
查看积分策略说明快速回复主题
你的用户名: 密码:   免费注册(只要30秒)


启用 Html 代码
使用个人签名
(请您文明上网理性发言!并遵守相关规定
   



Processed in 0.022392 s, 8 q - 无图精简版,sitemap,