发新帖  新投票  回帖 
韭菜的博客

发表时间:2012-1-26 22:24

卓依婷·黄梅戏经典精萃CDA[320K/115]



韭菜的博客 发表在 音乐快递 华声论坛 http://bbs.voc.com.cn/forum-371-1.html





下载资源地址:

**** 本内容跟帖回复才可浏览 *****

链接: 卓依婷·黄梅戏经典精萃CDB[320K/115]
链接: 卓依婷·黄梅戏经典精萃CDC[320K/115]


[本帖最后由 音乐我心 于 2012-1-28 21:35 编辑]

本帖助威记录

xzxzxz66699 +1
你的帖子可以上新闻联播了
2012-10-23 14:16:45
kkico +1
找了很久的专辑!!!谢谢楼主分享!
2012-03-07 10:45:55
11325446 +1
比这精彩的帖子还有木有
2012-02-07 19:33:09
lstys100 +1
你的帖子可以上新闻联播了
2012-02-07 10:32:01
爱格格 +5
卓依婷黄梅戏经典精萃~~点击进来就喜欢~感谢韭菜原抓分享!
2012-01-28 10:39:43
总计:魅力14点 助威6查看所有助威>>
 
韭菜的博客

回复时间:2012-1-26 22:24

按此在新窗口浏览图片


 
韭菜的博客

回复时间:2012-1-26 22:25

按此在新窗口浏览图片


 
韭菜的博客

回复时间:2012-1-26 22:26

按此在新窗口浏览图片


 
韭菜的博客

回复时间:2012-1-26 22:26
无水印大图下载测试包中。

 
韭菜的博客

回复时间:2012-1-26 22:27

专辑名称:卓依婷·黄梅戏经典精萃CDA
专辑艺人:卓依婷
出版公司:珠江白天鹅音像出版
发行日期:2010年
ISRC编号:CN-E23-10-680-00/A.J6

专辑介绍:
卓依婷黄梅戏经典精萃,这是专辑里的介绍,个人认为此CD是卓依婷个人经典精萃,呵呵······

专辑曲目:

DISC A
01 谁料皇榜中状元
02 神仙岁月我不爱
03 杉木水桶
04 眉清目秀美容貌
05 菩萨调
06 天女散花
07 情深似海
08 对花
09 含悲忍泪往前走
10 一月思念
11 到底人间欢乐多
12 尝花
13 夜来灯花结双蕊
14 春潮涌
15 东南西北风
16 长相依
17 蝶儿蝶儿满天飞


 
韭菜的博客

回复时间:2012-1-26 22:27
免责声明:所有音乐仅供测试及试听,音乐版权归原唱片公司所有,请下载后24小时内将其删除,并购买正版!如您认为侵犯了您相关权益,请留言指出,我们会尽快删除相关内容!

 
韭菜的博客

回复时间:2012-1-26 22:29
发一个现代人演绎的黄梅戏CD与大家分享一下,可惜的此专辑不是CDDA格式的。不知有人喜欢不。

 
韭菜的博客

回复时间:2012-1-26 22:31
附抓取日志:

Exact Audio Copy V0.99 prebeta 4 from 23. January 2008

EAC 抓取日志文件从25. 一月 2012, 13:44

卓依婷·韭菜的博客与您共享 / 黄梅戏经典精萃CDA

使用驱动器 :TSSTcorpDVD-ROM TS-H353B Adapter: 1 ID: 0

读取模式 : 保护
使用精确流 : 是
废除音频缓冲 : 是
使用 C2 指针 : 否

读取偏移校正 : 0
读取 Lead-In 和 Lead-Out : 否
用静音填充抓取中丢失偏移的采样 : 是
去除首尾静音块 : 否
在 CRC 计算中使用了空样本 : 否
已用接口 : Win NT 及 2000 本地 Win32 接口

所用输出格式 : 内部 WAV 函数
样本格式 : 44.100 Hz;16 Bit;立体声


被抓轨 CD 的 TOC

音轨 | 开始 | 长度 | 起始扇区 | 结尾扇区
--------------------------------------------------
1 | 0:00.00 | 2:29.36 | 0 | 11210
2 | 2:29.36 | 2:07.21 | 11211 | 20756
3 | 4:36.57 | 2:31.70 | 20757 | 32151
4 | 7:08.52 | 2:23.20 | 32152 | 42896
5 | 9:31.72 | 2:22.01 | 42897 | 53547
6 | 11:53.73 | 3:55.59 | 53548 | 71231
7 | 15:49.57 | 2:25.62 | 71232 | 82168
8 | 18:15.44 | 2:57.17 | 82169 | 95460
9 | 21:12.61 | 3:41.59 | 95461 | 112094
10 | 24:54.45 | 2:04.09 | 112095 | 121403
11 | 26:58.54 | 3:46.27 | 121404 | 138380
12 | 30:45.06 | 1:38.68 | 138381 | 145798
13 | 32:23.74 | 2:38.43 | 145799 | 157691
14 | 35:02.42 | 2:59.02 | 157692 | 171118
15 | 38:01.44 | 3:52.33 | 171119 | 188551
16 | 41:54.02 | 4:08.60 | 188552 | 207211
17 | 46:02.62 | 3:51.39 | 207212 | 224575


范围状态及错误

已选择范围

文件名 D:\抓轨音频\卓依婷·韭菜的博客与您共享 - 黄梅戏经典精萃CDA.wav

峰值电平 100.0 %
范围质量 100.0 %
复制 CRC F57E1983
复制成功

没有错误发生

状态报告结尾

 
usersu

回复时间:2012-1-26 22:41
好听 收了 谢谢。。。

 
sonylulu

回复时间:2012-1-26 22:49
万分感谢楼主的分享。

 
聊斋果壳

回复时间:2012-1-26 22:52
谢谢,喜欢黄梅戏

 
九牛拖金砖

回复时间:2012-1-26 22:54
喜欢

 
wen590

回复时间:2012-1-27 04:37
感谢楼主的分享。

 
wwwttaa

回复时间:2012-1-27 05:49
谢谢分享

 
chengcmc

回复时间:2012-1-27 08:09
非常不错的碟子。谢谢。

 
小天六六

回复时间:2012-1-27 08:58
新年快乐!感谢楼主!

 
多旧鱼

回复时间:2012-1-27 09:03
谢谢分享,新年快乐

 
w2hs

回复时间:2012-1-27 09:18
现代版的黄梅戏,听听

 
xzq5886

回复时间:2012-1-27 09:34
感谢老师发帖!!!发帖是种美德!!!分享也是一种美德!!!

 
发新帖 新投票
 回帖
查看积分策略说明快速回复主题
你的用户名: 密码:   免费注册(只要30秒)


启用 Html 代码
使用个人签名
(请您文明上网理性发言!并遵守相关规定
   



Processed in 0.030607 s, 8 q - 无图精简版,sitemap,