发新帖  新投票  回帖 
韭菜的博客

发表时间:2012-1-26 22:38

卓依婷·黄梅戏经典精萃CDC[320K/115]



韭菜的博客 发表在 音乐快递 华声论坛 http://bbs.voc.com.cn/forum-371-1.html





下载资源地址:

**** 本内容跟帖回复才可浏览 *****


链接: 卓依婷·黄梅戏经典精萃CDA[320K/115]
链接: 卓依婷·黄梅戏经典精萃CDB[320K/115]


[本帖最后由 音乐我心 于 2012-1-28 21:36 编辑]

本帖助威记录

11325446 +1
看了楼主的帖,神马都是浮云
2012-02-07 19:26:09
679vt +1
在浩如烟海的众多好帖中发现如此精品。本人决定签下几个大字,到此一游。
2012-02-06 11:46:16
爱格格 +5
卓依婷的经典资源超级棒~感谢韭菜原抓制作!
2012-01-28 10:44:35
总计:魅力7点 助威3查看所有助威>>
 
韭菜的博客

回复时间:2012-1-26 22:38

按此在新窗口浏览图片


 
韭菜的博客

回复时间:2012-1-26 22:39

按此在新窗口浏览图片


 
韭菜的博客

回复时间:2012-1-26 22:39

按此在新窗口浏览图片


 
韭菜的博客

回复时间:2012-1-26 22:39
无水印大图下载测试包中。

 
韭菜的博客

回复时间:2012-1-26 22:41

专辑名称:卓依婷·黄梅戏经典精萃CDC
专辑艺人:卓依婷
出版公司:珠江白天鹅音像出版
发行日期:2010年
ISRC编号:CN-E23-10-680-00/A.J6

专辑介绍:
卓依婷黄梅戏经典精萃,这是专辑里的介绍,个人认为此CD是卓依婷个人经典精萃,呵呵······

专辑曲目:

DISC C
01 爱江山更爱美人
02 别问我是谁
03 窗外
04 风中有朵雨做的云
05 后来
06 梦醒时分
07 你看你看月亮的脸
08 萍聚
09 太委屈
10 味道
11 问心无愧
12 心雨
13 新鸳鸯蝴蝶梦
14 用心良苦
15 真的好想你
16 走过咖啡屋


 
韭菜的博客

回复时间:2012-1-26 22:41
免责声明:所有音乐仅供测试及试听,音乐版权归原唱片公司所有,请下载后24小时内将其删除,并购买正版!如您认为侵犯了您相关权益,请留言指出,我们会尽快删除相关内容!

 
韭菜的博客

回复时间:2012-1-26 22:43
附抓取日志:
Exact Audio Copy V0.99 prebeta 4 from 23. January 2008

EAC 抓取日志文件从25. 一月 2012, 15:08

卓依婷·韭菜的博客与您共享 / 黄梅戏经典精萃CDC

使用驱动器 :TSSTcorpDVD-ROM TS-H353B Adapter: 1 ID: 0

读取模式 : 保护
使用精确流 : 是
废除音频缓冲 : 是
使用 C2 指针 : 否

读取偏移校正 : 0
读取 Lead-In 和 Lead-Out : 否
用静音填充抓取中丢失偏移的采样 : 是
去除首尾静音块 : 否
在 CRC 计算中使用了空样本 : 否
已用接口 : Win NT 及 2000 本地 Win32 接口

所用输出格式 : 内部 WAV 函数
样本格式 : 44.100 Hz;16 Bit;立体声


被抓轨 CD 的 TOC

音轨 | 开始 | 长度 | 起始扇区 | 结尾扇区
--------------------------------------------------
1 | 0:00.00 | 4:53.62 | 0 | 22036
2 | 4:53.62 | 5:15.35 | 22037 | 45696
3 | 10:09.22 | 4:03.41 | 45697 | 63962
4 | 14:12.63 | 4:22.32 | 63963 | 83644
5 | 18:35.20 | 5:25.34 | 83645 | 108053
6 | 24:00.54 | 4:17.03 | 108054 | 127331
7 | 28:17.57 | 4:39.46 | 127332 | 148302
8 | 32:57.28 | 3:24.30 | 148303 | 163632
9 | 36:21.58 | 4:54.38 | 163633 | 185720
10 | 41:16.21 | 3:54.13 | 185721 | 203283
11 | 45:10.34 | 3:41.22 | 203284 | 219880
12 | 48:51.56 | 5:29.65 | 219881 | 244620
13 | 54:21.46 | 4:34.00 | 244621 | 265170
14 | 58:55.46 | 4:38.00 | 265171 | 286020
15 | 63:33.46 | 4:54.37 | 286021 | 308107
16 | 68:28.08 | 2:54.21 | 308108 | 321178


范围状态及错误

已选择范围

复制被中止

状态报告结尾

------------------------------------------------------------

Exact Audio Copy V0.99 prebeta 4 from 23. January 2008

EAC 抓取日志文件从25. 一月 2012, 15:19

卓依婷·韭菜的博客与您共享 / 黄梅戏经典精萃CDC

使用驱动器 :TSSTcorpDVD-ROM TS-H353B Adapter: 1 ID: 0

读取模式 : 保护
使用精确流 : 是
废除音频缓冲 : 是
使用 C2 指针 : 否

读取偏移校正 : 0
读取 Lead-In 和 Lead-Out : 否
用静音填充抓取中丢失偏移的采样 : 是
去除首尾静音块 : 否
在 CRC 计算中使用了空样本 : 否
已用接口 : Win NT 及 2000 本地 Win32 接口

所用输出格式 : 内部 WAV 函数
样本格式 : 44.100 Hz;16 Bit;立体声


被抓轨 CD 的 TOC

音轨 | 开始 | 长度 | 起始扇区 | 结尾扇区
--------------------------------------------------
1 | 0:00.00 | 4:53.62 | 0 | 22036
2 | 4:53.62 | 5:15.35 | 22037 | 45696
3 | 10:09.22 | 4:03.41 | 45697 | 63962
4 | 14:12.63 | 4:22.32 | 63963 | 83644
5 | 18:35.20 | 5:25.34 | 83645 | 108053
6 | 24:00.54 | 4:17.03 | 108054 | 127331
7 | 28:17.57 | 4:39.46 | 127332 | 148302
8 | 32:57.28 | 3:24.30 | 148303 | 163632
9 | 36:21.58 | 4:54.38 | 163633 | 185720
10 | 41:16.21 | 3:54.13 | 185721 | 203283
11 | 45:10.34 | 3:41.22 | 203284 | 219880
12 | 48:51.56 | 5:29.65 | 219881 | 244620
13 | 54:21.46 | 4:34.00 | 244621 | 265170
14 | 58:55.46 | 4:38.00 | 265171 | 286020
15 | 63:33.46 | 4:54.37 | 286021 | 308107
16 | 68:28.08 | 2:54.21 | 308108 | 321178


范围状态及错误

已选择范围

文件名 D:\抓轨音频\卓依婷·韭菜的博客与您共享 - 黄梅戏经典精萃CDC.wav

峰值电平 100.0 %
范围质量 100.0 %
复制 CRC F1E5473E
复制成功

没有错误发生

状态报告结尾

 
韭菜的博客

回复时间:2012-1-26 22:43
各位春节快乐。

 
wen590

回复时间:2012-1-27 04:42
新年快乐!感谢楼主分享。全部收齐了。

 
wwwttaa

回复时间:2012-1-27 05:48
谢谢分享

 
chengcmc

回复时间:2012-1-27 08:11
都是经典好听歌曲。感谢分享。

 
letianlaile

回复时间:2012-1-27 08:12
感谢楼主,楼主新年快乐。

 
sbjwxfsbjewxf

回复时间:2012-1-27 08:20
谢谢,春节快乐!

 
多旧鱼

回复时间:2012-1-27 08:42
新年快乐,O(∩_∩)O谢谢分享

 
hoiman

回复时间:2012-1-27 08:58
多謝樓主分享

 
小天六六

回复时间:2012-1-27 08:59
新年快乐!感谢楼主!

 
w2hs

回复时间:2012-1-27 09:19
一起收藏了,谢谢分享

 
lxc994186315

回复时间:2012-1-27 09:33
都是经典好听歌曲

 
qaz5566999

回复时间:2012-1-27 09:43
楼主新年快乐

 
发新帖 新投票
 回帖
查看积分策略说明快速回复主题
你的用户名: 密码:   免费注册(只要30秒)


启用 Html 代码
使用个人签名
(请您文明上网理性发言!并遵守相关规定
   



Processed in 0.029573 s, 8 q - 无图精简版,sitemap,