·英王子或因情色丑闻面临调查 不享刑事豁免权·京东发声明辟谣刘强东奶茶“3000万分手费”传闻
发新帖  新投票  回帖 
18840个阅读者,403条回复 | 打印 | 订阅 | 收藏
章鱼2012

发表时间:2016-8-2 22:12

巅峰舞曲音乐/疯不够 劲爆版 HQⅡ[WAV/CUE/320k皮皮盘]   



章鱼2012 发表在 音乐地带 华声论坛 http://bbs.voc.com.cn/forum-77-1.html



下载

**** 本内容跟帖回复才可浏览 *****

本帖助威记录

sopian +1
加油 很棒啊
2016-08-22 23:24:10
燕子y +1
比这精彩的帖子还有木有
2016-08-15 13:04:20
lookyer +1
比这精彩的帖子还有木有
2016-08-14 01:01:42
li1962888 +3
比这精彩的帖子还有木有
2016-08-02 23:10:05
炫舞e时空 +5
此帖让人眼前一亮,读完神清气爽,豁然开朗!腰不酸了,腿不痛了。真带劲!
2016-08-02 22:22:41
总计:魅力11点 助威5查看所有助威>>



----------------------------------------------
华声论坛 影音帝国 官方QQ群

影视时空|音乐地带 QQ群:140288348 128111319 42933722
音乐快递QQ群:338549863 原声地带QQ群:344590352
高品质单曲QQ群:116060792 心情音乐QQ群:154659931
心情吟诵QQ群:190584521 音乐播放器QQ群:206520165
华声论坛 有你更精彩!!
 
章鱼2012

回复时间:2016-8-2 22:13

按此在新窗口浏览图片

按此在新窗口浏览图片

按此在新窗口浏览图片





----------------------------------------------
华声论坛 影音帝国 官方QQ群

影视时空|音乐地带 QQ群:140288348 128111319 42933722
音乐快递QQ群:338549863 原声地带QQ群:344590352
高品质单曲QQ群:116060792 心情音乐QQ群:154659931
心情吟诵QQ群:190584521 音乐播放器QQ群:206520165
华声论坛 有你更精彩!!
 
章鱼2012

回复时间:2016-8-2 22:14

专辑名称:疯不够 劲爆版 HQⅡ
专辑艺人:群星
出版发行: 山东文化音像出版社
ISRC:CN-E27-11-089-00/A.J6
自编号:HQ2-013
资源类型:章鱼原抓WAV/CUE

专辑介绍:

超级CD革新技术HI-FI发烧音效


专辑曲目:

01.Alaas Calavera General 05:05
02.follow Me 05:50
03.party Dont Stop 04:46
04.Get Up 04:11
05.Morena 04:07
06.Summer 05:39
07.Hey Now As 04:47
08.Temperament 03:55
09.A Minha Amiga fran 04:53
10.All Night 04:43
11.Polka Polka Polka 04:41
12.Skyler 04:46





----------------------------------------------
华声论坛 影音帝国 官方QQ群

影视时空|音乐地带 QQ群:140288348 128111319 42933722
音乐快递QQ群:338549863 原声地带QQ群:344590352
高品质单曲QQ群:116060792 心情音乐QQ群:154659931
心情吟诵QQ群:190584521 音乐播放器QQ群:206520165
华声论坛 有你更精彩!!
 
章鱼2012

回复时间:2016-8-2 22:14

按此在新窗口浏览图片
按此在新窗口浏览图片
按此在新窗口浏览图片
按此在新窗口浏览图片





----------------------------------------------
华声论坛 影音帝国 官方QQ群

影视时空|音乐地带 QQ群:140288348 128111319 42933722
音乐快递QQ群:338549863 原声地带QQ群:344590352
高品质单曲QQ群:116060792 心情音乐QQ群:154659931
心情吟诵QQ群:190584521 音乐播放器QQ群:206520165
华声论坛 有你更精彩!!
 
章鱼2012

回复时间:2016-8-2 22:15

按此在新窗口浏览图片





----------------------------------------------
华声论坛 影音帝国 官方QQ群

影视时空|音乐地带 QQ群:140288348 128111319 42933722
音乐快递QQ群:338549863 原声地带QQ群:344590352
高品质单曲QQ群:116060792 心情音乐QQ群:154659931
心情吟诵QQ群:190584521 音乐播放器QQ群:206520165
华声论坛 有你更精彩!!
 
章鱼2012

回复时间:2016-8-2 22:15

Exact Audio Copy V0.99 prebeta 4 from 23. January 2008

EAC 抓取日志文件从23. 七月 2016, 15:30

章鱼原抓 / 疯不够 劲爆版 HQⅡ

使用驱动器 :BENQ DVDROM DD18SA Adapter: 1 ID: 1

读取模式 : 保护
使用精确流 : 是
废除音频缓冲 : 否
使用 C2 指针 : 否

组合读/写偏移校正 : 0
读取 Lead-In 和 Lead-Out : 否
用静音填充抓取中丢失偏移的采样 : 是
去除首尾静音块 : 否
在 CRC 计算中使用了空样本 : 否
已用接口 : Win NT 及 2000 本地 Win32 接口

所用输出格式 : 内部 WAV 函数
样本格式 : 44.100 Hz;16 Bit;立体声


被抓轨 CD 的 TOC

音轨 | 开始 | 长度 | 起始扇区 | 结尾扇区
--------------------------------------------------
1 | 0:00.00 | 5:05.39 | 0 | 22913
2 | 5:05.39 | 5:50.41 | 22914 | 49204
3 | 10:56.05 | 4:46.64 | 49205 | 70718
4 | 15:42.69 | 4:12.00 | 70719 | 89618
5 | 19:54.69 | 4:07.67 | 89619 | 108210
6 | 24:02.61 | 5:40.00 | 108211 | 133710
7 | 29:42.61 | 4:47.53 | 133711 | 155288
8 | 34:30.39 | 3:57.14 | 155289 | 173077
9 | 38:27.53 | 4:55.52 | 173078 | 195254
10 | 43:23.30 | 4:45.03 | 195255 | 216632
11 | 48:08.33 | 4:44.00 | 216633 | 237932
12 | 52:52.33 | 4:44.72 | 237933 | 259304


范围状态及错误

已选择范围

文件名 E:\★音乐收藏\原抓\章鱼原抓《疯不够 劲爆版 HQⅡ》[WAV+CUE]\章鱼原抓 - 疯不够 劲爆版 HQⅡ.wav

峰值电平 100.0 %
范围质量 100.0 %
复制 CRC F8EA8165
复制成功

没有错误发生

状态报告结尾





----------------------------------------------
华声论坛 影音帝国 官方QQ群

影视时空|音乐地带 QQ群:140288348 128111319 42933722
音乐快递QQ群:338549863 原声地带QQ群:344590352
高品质单曲QQ群:116060792 心情音乐QQ群:154659931
心情吟诵QQ群:190584521 音乐播放器QQ群:206520165
华声论坛 有你更精彩!!
 
章鱼2012

回复时间:2016-8-2 22:16

本专辑仅供个人试听,版权归唱片公司所有,任何人不得用于商业用途!如果侵犯了你的权益请你留言指出、我如看见会在24小时内删除!





----------------------------------------------
华声论坛 影音帝国 官方QQ群

影视时空|音乐地带 QQ群:140288348 128111319 42933722
音乐快递QQ群:338549863 原声地带QQ群:344590352
高品质单曲QQ群:116060792 心情音乐QQ群:154659931
心情吟诵QQ群:190584521 音乐播放器QQ群:206520165
华声论坛 有你更精彩!!
 
炫舞e时空

回复时间:2016-8-2 22:21
坐沙发欣赏,够劲爆!




----------------------------------------------
华声论坛 影音帝国 官方QQ群
影视时空|音乐地带 QQ群:140288348 128111319 42933722
音乐快递QQ群:338549863 原声地带QQ群:344590352
高品质单曲QQ群:116060792 心情音乐QQ群:154659931
心情吟诵QQ群:190584521 音乐播放器QQ群:206520165

华声论坛 有你更精彩!!
 
炫舞e时空

回复时间:2016-8-2 22:34
师傅辛苦了!遥祝夏安!天气炎热,少出门哦,出门要全幅武装滴.




----------------------------------------------
华声论坛 影音帝国 官方QQ群
影视时空|音乐地带 QQ群:140288348 128111319 42933722
音乐快递QQ群:338549863 原声地带QQ群:344590352
高品质单曲QQ群:116060792 心情音乐QQ群:154659931
心情吟诵QQ群:190584521 音乐播放器QQ群:206520165

华声论坛 有你更精彩!!
 
听音ABC

回复时间:2016-8-2 22:50
多谢分享!




----------------------------------------------
 
yzzpfbeyond

回复时间:2016-8-2 22:52
谢谢分享、好听

 
li1962888

回复时间:2016-8-2 23:09
谢谢分享!

 
北方骏马

回复时间:2016-8-2 23:27
辛苦.........


按此在新窗口浏览图片

 
add13888

回复时间:2016-8-2 23:53
好像可以哦

 
眼镜wsed

回复时间:2016-8-2 23:54
不错 一听就有感觉




----------------------------------------------
 
小洛0922

回复时间:2016-8-3 00:01
感谢分享

 
157252251

回复时间:2016-8-3 00:18
多谢分享

 
dzy748282

回复时间:2016-8-3 01:21
谢谢楼主给力分享!

 
风雨一肩挑

回复时间:2016-8-3 03:40
谢谢楼主提供...

 
郑志辉

回复时间:2016-8-3 07:23
收下听下好多谢!

 
发新帖 新投票
 回帖
查看积分策略说明快速回复主题
你的用户名: 密码:   免费注册(只要30秒)


启用 Html 代码
使用个人签名
(请您文明上网理性发言!并遵守相关规定
   



Processed in 0.028292 s, 9 q - 无图精简版,sitemap,