·英王子或因情色丑闻面临调查 不享刑事豁免权·京东发声明辟谣刘强东奶茶“3000万分手费”传闻
发新帖  新投票  回帖 
50229个阅读者,452条回复 | 打印 | 订阅 | 收藏
梦回云阳

发表时间:2016-8-19 13:59

群星·旅途欢歌CDJ【WAV+CUE/百度云】   



梦回云阳 发表在 音乐地带 华声论坛 http://bbs.voc.com.cn/forum-77-1.html










下载测试资源
**** 本内容跟帖回复才可浏览 *****


本帖助威记录

爪子 +1
在浩如烟海的众多好帖中发现如此精品。本人决定签下几个大字,到此一游。
2016-09-18 13:04:02
乌鸦哥 +1
看了楼主的帖,神马都是浮云
2016-09-09 20:56:36
A多想你好 +1
比这精彩的帖子还有木有
2016-09-04 19:07:46
cbcd +1
比这精彩的帖子还有木有
2016-08-20 16:06:40
蓝山咖啡一二 +1
天啊,这还是帖子吗?简直是神作
2016-08-19 18:45:43
总计:魅力5点 助威5查看所有助威>>

本帖最近评分记录
音乐我心   2016-8-21 11:20  金钱  +20   感谢云阳版版原抓分享
音乐我心   2016-8-21 11:20  魅力  +20   感谢云阳版版原抓分享



----------------------------------------------
友情提醒:下载测试资源存放于免费网盘,不保证资源的长期有效;若有任何一方主张版权,请各管管或版版直接删除本帖,不用任何形式的通知我本人,谢谢。

华声论坛 影音帝国 官方QQ群
影视时空|音乐地带 QQ群:140288348 128111319 42933722
音乐快递QQ群:338549863 原声地带QQ群:344590352
高品质单曲QQ群:116060792 心情音乐QQ群:154659931
心情吟诵QQ群:190584521 音乐播放器QQ群:206520165
 
梦回云阳

回复时间:2016-8-19 13:59

专辑名称:旅途欢歌CDJ
专辑艺人:群星
出版公司:珠江白天鹅音像出版社
ISRC编号:CN-F23-10-549-00/A.J6
资源格式:WAV


专辑介绍:
音乐响起,耳朵里的翩翩起舞,一曲惊人的音色,徜徉在丝滑细腻的涓涓细流里,精选的曲目,只因旋律响起那一刻的似曾相识,免除耳朵的纷拢,给您至尊音质享受,旅途欢歌,一路相随......

专辑曲目:
01.你是我最爱的人
02.当爱在靠近
03.听海
04.爱一个人好难
05.值得一辈子去爱
06.朋友
07.隐形的翅膀
08.再回首
09.太委屈
10.至少还有你
11.没离开过
12.无情的雨无情的你
13.下辈子如果我还记得你
14.有多少爱可以重来
15.最浪漫的事





----------------------------------------------
友情提醒:下载测试资源存放于免费网盘,不保证资源的长期有效;若有任何一方主张版权,请各管管或版版直接删除本帖,不用任何形式的通知我本人,谢谢。

华声论坛 影音帝国 官方QQ群
影视时空|音乐地带 QQ群:140288348 128111319 42933722
音乐快递QQ群:338549863 原声地带QQ群:344590352
高品质单曲QQ群:116060792 心情音乐QQ群:154659931
心情吟诵QQ群:190584521 音乐播放器QQ群:206520165
 
梦回云阳

回复时间:2016-8-19 14:00

按此在新窗口浏览图片





----------------------------------------------
友情提醒:下载测试资源存放于免费网盘,不保证资源的长期有效;若有任何一方主张版权,请各管管或版版直接删除本帖,不用任何形式的通知我本人,谢谢。

华声论坛 影音帝国 官方QQ群
影视时空|音乐地带 QQ群:140288348 128111319 42933722
音乐快递QQ群:338549863 原声地带QQ群:344590352
高品质单曲QQ群:116060792 心情音乐QQ群:154659931
心情吟诵QQ群:190584521 音乐播放器QQ群:206520165
 
梦回云阳

回复时间:2016-8-19 14:02

抓轨前检测:

按此在新窗口浏览图片


按此在新窗口浏览图片


按此在新窗口浏览图片





----------------------------------------------
友情提醒:下载测试资源存放于免费网盘,不保证资源的长期有效;若有任何一方主张版权,请各管管或版版直接删除本帖,不用任何形式的通知我本人,谢谢。

华声论坛 影音帝国 官方QQ群
影视时空|音乐地带 QQ群:140288348 128111319 42933722
音乐快递QQ群:338549863 原声地带QQ群:344590352
高品质单曲QQ群:116060792 心情音乐QQ群:154659931
心情吟诵QQ群:190584521 音乐播放器QQ群:206520165
 
梦回云阳

回复时间:2016-8-19 14:02
EAC 抓取日志文件

Exact Audio Copy V0.99 prebeta 4 from 23. January 2008

EAC 抓取日志文件从3. 六月 2016, 16:32

群星 / 旅途欢歌CDJ

使用驱动器 :MATSHITADVD-RAM UJ8E0 Adapter: 0 ID: 1

读取模式 : 暴发

组合读/写偏移校正 : 0
读取 Lead-In 和 Lead-Out : 否
用静音填充抓取中丢失偏移的采样 : 是
去除首尾静音块 : 否
在 CRC 计算中使用了空样本 : 否
已用接口 : Win NT 及 2000 本地 Win32 接口

所用输出格式 : 内部 WAV 函数
样本格式 : 44.100 Hz;16 Bit;立体声


被抓轨 CD 的 TOC

音轨 | 开始 | 长度 | 起始扇区 | 结尾扇区
--------------------------------------------------
1 | 0:00.00 | 4:38.60 | 0 | 20909
2 | 4:38.60 | 4:13.36 | 20910 | 39920
3 | 8:52.21 | 5:21.34 | 39921 | 64029
4 | 14:13.55 | 4:54.07 | 64030 | 86086
5 | 19:07.62 | 3:49.07 | 86087 | 103268
6 | 22:56.69 | 5:11.24 | 103269 | 126617
7 | 28:08.18 | 3:42.19 | 126618 | 143286
8 | 31:50.37 | 4:11.10 | 143287 | 162121
9 | 36:01.47 | 4:53.28 | 162122 | 184124
10 | 40:55.00 | 4:35.04 | 184125 | 204753
11 | 45:30.04 | 5:19.20 | 204754 | 228698
12 | 50:49.24 | 4:10.42 | 228699 | 247490
13 | 54:59.66 | 3:46.43 | 247491 | 264483
14 | 58:46.34 | 4:55.13 | 264484 | 286621
15 | 63:41.47 | 4:22.25 | 286622 | 306296


范围状态及错误

已选择范围

文件名 F:\音频抓轨\群星 - 旅途欢歌CDJ.wav

计时问题 0:00:00
计时问题 0:00:04
计时问题 0:08:17
计时问题 0:08:43
计时问题 0:09:09
计时问题 0:15:47
计时问题 0:22:26
计时问题 0:41:37
计时问题 0:56:20
计时问题 1:04:25
计时问题 1:04:52

峰值电平 100.0 %
复制 CRC 783BAF62
复制结束

没有错误发生

状态报告结尾




----------------------------------------------
友情提醒:下载测试资源存放于免费网盘,不保证资源的长期有效;若有任何一方主张版权,请各管管或版版直接删除本帖,不用任何形式的通知我本人,谢谢。

华声论坛 影音帝国 官方QQ群
影视时空|音乐地带 QQ群:140288348 128111319 42933722
音乐快递QQ群:338549863 原声地带QQ群:344590352
高品质单曲QQ群:116060792 心情音乐QQ群:154659931
心情吟诵QQ群:190584521 音乐播放器QQ群:206520165
 
梦回云阳

回复时间:2016-8-19 14:03
所有音乐仅供测试及试听,音乐版权归原唱片公司所有,任何人不得用于商业用途!




----------------------------------------------
友情提醒:下载测试资源存放于免费网盘,不保证资源的长期有效;若有任何一方主张版权,请各管管或版版直接删除本帖,不用任何形式的通知我本人,谢谢。

华声论坛 影音帝国 官方QQ群
影视时空|音乐地带 QQ群:140288348 128111319 42933722
音乐快递QQ群:338549863 原声地带QQ群:344590352
高品质单曲QQ群:116060792 心情音乐QQ群:154659931
心情吟诵QQ群:190584521 音乐播放器QQ群:206520165
 
梦回云阳

回复时间:2016-8-19 14:04
近二个月来,个人工作超忙,没有向大家推荐云阳的音乐,偷懒了,很是抱歉。




----------------------------------------------
友情提醒:下载测试资源存放于免费网盘,不保证资源的长期有效;若有任何一方主张版权,请各管管或版版直接删除本帖,不用任何形式的通知我本人,谢谢。

华声论坛 影音帝国 官方QQ群
影视时空|音乐地带 QQ群:140288348 128111319 42933722
音乐快递QQ群:338549863 原声地带QQ群:344590352
高品质单曲QQ群:116060792 心情音乐QQ群:154659931
心情吟诵QQ群:190584521 音乐播放器QQ群:206520165
 
ldg008

回复时间:2016-8-19 14:31
谢谢LZ分享

 
皇家乐园

回复时间:2016-8-19 14:41
谢谢分享!!

 
yykk2013

回复时间:2016-8-19 15:23
谢谢分享

 
njw007

回复时间:2016-8-19 15:29
很好的系列,这个收官之作吗?

 
郑志辉

回复时间:2016-8-19 15:34
收下听下好多谢分享!

 
960317

回复时间:2016-8-19 15:34
感谢楼主分享

 
大肚子弥勒

回复时间:2016-8-19 15:46
谢谢分享!!

 
午夜VS剧场

回复时间:2016-8-19 17:14
不错!给楼主点个赞!支持一下!!!

 
黑风2016

回复时间:2016-8-19 17:26
谢谢分享!!

 
lw785869

回复时间:2016-8-19 18:15
谢谢分享 楼主辛苦了

 
nikonxgp

回复时间:2016-8-19 18:35
谢谢楼主分享

 
intomasa

回复时间:2016-8-19 18:43
钱,只有给钱,百度云才会给你正常速度下载!

 
蓝山咖啡一二

回复时间:2016-8-19 18:44
很棒呀,谢谢哦

 
发新帖 新投票
 回帖
查看积分策略说明快速回复主题
你的用户名: 密码:   免费注册(只要30秒)


启用 Html 代码
使用个人签名
(请您文明上网理性发言!并遵守相关规定
   



Processed in 0.029500 s, 10 q - 无图精简版,sitemap,