·英王子或因情色丑闻面临调查 不享刑事豁免权·京东发声明辟谣刘强东奶茶“3000万分手费”传闻
发新帖  新投票  回帖 
44116个阅读者,368条回复 | 打印 | 订阅 | 收藏
梦回云阳

发表时间:2016-8-27 17:10

群星·旅途欢歌CDK【WAV+CUE/百度云】   



梦回云阳 发表在 音乐地带 华声论坛 http://bbs.voc.com.cn/forum-77-1.html










下载测试资源
**** 本内容跟帖回复才可浏览 *****



[本帖最后由 梦回云阳 于 2016-8-27 17:18 编辑]

本帖助威记录

常青树 +1
此帖让人眼前一亮,读完神清气爽,豁然开朗!腰不酸了,腿不痛了。真带劲!
2016-09-22 21:09:13
心随梦飞2012 +1
云阳老师的帖子一如既往的好
2016-09-22 12:58:33
蓝色劲浪 +1
好听低音承重
2016-09-15 22:44:13
同进网欧阳 +1
很棒
2016-09-11 15:19:54
cbcd +1
比这精彩的帖子还有木有
2016-08-29 08:49:06
总计:魅力6点 助威6查看所有助威>>

本帖最近评分记录
音乐我心   2016-8-29 11:05  金钱  +20   t很精彩的旅途欢歌系统,云阳原抓分享 ...
音乐我心   2016-8-29 11:05  魅力  +20   t很精彩的旅途欢歌系统,云阳原抓分享 ...



----------------------------------------------
友情提醒:下载测试资源存放于免费网盘,不保证资源的长期有效;若有任何一方主张版权,请各管管或版版直接删除本帖,不用任何形式的通知我本人,谢谢。

华声论坛 影音帝国 官方QQ群
影视时空|音乐地带 QQ群:140288348 128111319 42933722
音乐快递QQ群:338549863 原声地带QQ群:344590352
高品质单曲QQ群:116060792 心情音乐QQ群:154659931
心情吟诵QQ群:190584521 音乐播放器QQ群:206520165
 
梦回云阳

回复时间:2016-8-27 17:11

专辑名称:旅途欢歌CDK
专辑艺人:群星
出版公司:珠江白天鹅音像出版社
ISRC编号:CN-F23-10-549-00/A.J6
资源格式:WAV


专辑介绍:
音乐响起,耳朵里的翩翩起舞,一曲惊人的音色,徜徉在丝滑细腻的涓涓细流里,精选的曲目,只因旋律响起那一刻的似曾相识,免除耳朵的纷拢,给您至尊音质享受,旅途欢歌,一路相随......

专辑曲目:
01.太依赖
02.心底那个人
03.小苹果
04.赞赞赞
05.情为何物
06.爱你一生
07.像我一样爱你
08.有一种爱叫犯贱
09.十二年
10.坏姐姐
11.啦啦爱
12.想你啦
13.不嫁高富帅不爱白富美
14.伤了你的心我也会难过
15.如果我是DJ你会爱我吗





----------------------------------------------
友情提醒:下载测试资源存放于免费网盘,不保证资源的长期有效;若有任何一方主张版权,请各管管或版版直接删除本帖,不用任何形式的通知我本人,谢谢。

华声论坛 影音帝国 官方QQ群
影视时空|音乐地带 QQ群:140288348 128111319 42933722
音乐快递QQ群:338549863 原声地带QQ群:344590352
高品质单曲QQ群:116060792 心情音乐QQ群:154659931
心情吟诵QQ群:190584521 音乐播放器QQ群:206520165
 
梦回云阳

回复时间:2016-8-27 17:12

按此在新窗口浏览图片





----------------------------------------------
友情提醒:下载测试资源存放于免费网盘,不保证资源的长期有效;若有任何一方主张版权,请各管管或版版直接删除本帖,不用任何形式的通知我本人,谢谢。

华声论坛 影音帝国 官方QQ群
影视时空|音乐地带 QQ群:140288348 128111319 42933722
音乐快递QQ群:338549863 原声地带QQ群:344590352
高品质单曲QQ群:116060792 心情音乐QQ群:154659931
心情吟诵QQ群:190584521 音乐播放器QQ群:206520165
 
梦回云阳

回复时间:2016-8-27 17:13

抓轨前检测


按此在新窗口浏览图片


按此在新窗口浏览图片


按此在新窗口浏览图片





----------------------------------------------
友情提醒:下载测试资源存放于免费网盘,不保证资源的长期有效;若有任何一方主张版权,请各管管或版版直接删除本帖,不用任何形式的通知我本人,谢谢。

华声论坛 影音帝国 官方QQ群
影视时空|音乐地带 QQ群:140288348 128111319 42933722
音乐快递QQ群:338549863 原声地带QQ群:344590352
高品质单曲QQ群:116060792 心情音乐QQ群:154659931
心情吟诵QQ群:190584521 音乐播放器QQ群:206520165
 
梦回云阳

回复时间:2016-8-27 17:14
EAC 抓取日志文件


Exact Audio Copy V0.99 prebeta 4 from 23. January 2008

EAC 抓取日志文件从27. 八月 2016, 16:01

群星 / 旅途欢歌CDK

使用驱动器 :MATSHITADVD-RAM UJ8E0 Adapter: 0 ID: 0

读取模式 : 暴发

组合读/写偏移校正 : 0
读取 Lead-In 和 Lead-Out : 否
用静音填充抓取中丢失偏移的采样 : 是
去除首尾静音块 : 否
在 CRC 计算中使用了空样本 : 否
已用接口 : Win NT 及 2000 本地 Win32 接口

所用输出格式 : 内部 WAV 函数
样本格式 : 44.100 Hz;16 Bit;立体声


被抓轨 CD 的 TOC

音轨 | 开始 | 长度 | 起始扇区 | 结尾扇区
--------------------------------------------------
1 | 0:00.00 | 4:50.70 | 0 | 21819
2 | 4:50.70 | 4:45.11 | 21820 | 43205
3 | 9:36.06 | 4:37.18 | 43206 | 63998
4 | 14:13.24 | 5:03.63 | 63999 | 86786
5 | 19:17.12 | 4:07.46 | 86787 | 105357
6 | 23:24.58 | 4:38.66 | 105358 | 126273
7 | 28:03.49 | 5:16.03 | 126274 | 149976
8 | 33:19.52 | 4:14.13 | 149977 | 169039
9 | 37:33.65 | 4:14.47 | 169040 | 188136
10 | 41:48.37 | 3:38.65 | 188137 | 204551
11 | 45:27.27 | 6:05.45 | 204552 | 231971
12 | 51:32.72 | 3:52.45 | 231972 | 249416
13 | 55:25.42 | 4:25.42 | 249417 | 269333
14 | 59:51.09 | 4:42.41 | 269334 | 290524
15 | 64:33.50 | 3:47.47 | 290525 | 307596


范围状态及错误

已选择范围

文件名 F:\音频抓轨\群星 - 旅途欢歌CDK.wav

计时问题 0:00:57
计时问题 0:02:33
计时问题 0:06:36
计时问题 0:09:43
计时问题 0:11:01
计时问题 0:11:57
计时问题 0:12:50
计时问题 0:14:03
计时问题 0:16:09
计时问题 0:16:52
计时问题 0:25:08
计时问题 0:36:50
计时问题 0:51:43

峰值电平 100.0 %
复制 CRC 58D17FC4
复制结束

没有错误发生

状态报告结尾




----------------------------------------------
友情提醒:下载测试资源存放于免费网盘,不保证资源的长期有效;若有任何一方主张版权,请各管管或版版直接删除本帖,不用任何形式的通知我本人,谢谢。

华声论坛 影音帝国 官方QQ群
影视时空|音乐地带 QQ群:140288348 128111319 42933722
音乐快递QQ群:338549863 原声地带QQ群:344590352
高品质单曲QQ群:116060792 心情音乐QQ群:154659931
心情吟诵QQ群:190584521 音乐播放器QQ群:206520165
 
梦回云阳

回复时间:2016-8-27 17:14
所有音乐仅供测试及试听,音乐版权归原唱片公司所有,任何人不得用于商业用途!




----------------------------------------------
友情提醒:下载测试资源存放于免费网盘,不保证资源的长期有效;若有任何一方主张版权,请各管管或版版直接删除本帖,不用任何形式的通知我本人,谢谢。

华声论坛 影音帝国 官方QQ群
影视时空|音乐地带 QQ群:140288348 128111319 42933722
音乐快递QQ群:338549863 原声地带QQ群:344590352
高品质单曲QQ群:116060792 心情音乐QQ群:154659931
心情吟诵QQ群:190584521 音乐播放器QQ群:206520165
 
燕子y

回复时间:2016-8-27 17:41
美妙的节奏,点赞先




----------------------------------------------
开心时听音乐是入耳

伤心时听音乐是入心
 
燕子y

回复时间:2016-8-27 17:44
祝版主周末快乐!

周末黄昏,音乐盛宴,精彩

谢谢版主推荐分享




----------------------------------------------
开心时听音乐是入耳

伤心时听音乐是入心
 
jawzx

回复时间:2016-8-27 17:46
感谢楼主分享!

 
雨水煮茶

回复时间:2016-8-27 18:13
感谢分享

 
znml

回复时间:2016-8-27 19:07
谢谢分享!




----------------------------------------------
 
ldg008

回复时间:2016-8-27 19:25
谢谢LZ分享

 
laoyumimark

回复时间:2016-8-27 19:55
谢谢分享 这么好的资源

 
liu075

回复时间:2016-8-27 20:05
谢谢分享!

 
皇家乐园

回复时间:2016-8-27 20:15
谢谢版主推荐分享

 
yycn21

回复时间:2016-8-27 20:43
谢谢分享!

 
雪亮亮

回复时间:2016-8-27 21:08
谢谢分享

 
jbs101

回复时间:2016-8-27 21:09
谢谢楼主!!!

 
nikonxgp

回复时间:2016-8-27 21:51
谢谢楼主分享

 
phua2008

回复时间:2016-8-27 22:01
谢谢楼主分享

 
发新帖 新投票
 回帖
查看积分策略说明快速回复主题
你的用户名: 密码:   免费注册(只要30秒)


启用 Html 代码
使用个人签名
(请您文明上网理性发言!并遵守相关规定
   



Processed in 0.033052 s, 10 q - 无图精简版,sitemap,