·英王子或因情色丑闻面临调查 不享刑事豁免权·京东发声明辟谣刘强东奶茶“3000万分手费”传闻
发新帖  新投票  回帖 
38476个阅读者,358条回复 | 打印 | 订阅 | 收藏
梦回云阳

发表时间:2016-9-4 15:03

群星·旅途欢歌CDL【WAV+CUE/百度云】   



梦回云阳 发表在 音乐地带 华声论坛 http://bbs.voc.com.cn/forum-77-1.html










下载测试资源
**** 本内容跟帖回复才可浏览 *****


本帖助威记录

李坪源SC +1
这是帖子?我揉揉眼
2016-10-20 07:21:07
li1962888 +3
比这精彩的帖子还有木有
2016-10-10 23:10:04
燕子y +1
比这精彩的帖子还有木有
2016-09-07 14:57:51
总计:魅力5点 助威3查看所有助威>>

本帖最近评分记录
音乐我心   2016-9-5 08:37  魅力  +20   感谢云阳版主的精彩原抓分享!
音乐我心   2016-9-5 08:37  金钱  +20   感谢云阳版主的精彩原抓分享!



----------------------------------------------
友情提醒:下载测试资源存放于免费网盘,不保证资源的长期有效;若有任何一方主张版权,请各管管或版版直接删除本帖,不用任何形式的通知我本人,谢谢。

华声论坛 影音帝国 官方QQ群
影视时空|音乐地带 QQ群:140288348 128111319 42933722
音乐快递QQ群:338549863 原声地带QQ群:344590352
高品质单曲QQ群:116060792 心情音乐QQ群:154659931
心情吟诵QQ群:190584521 音乐播放器QQ群:206520165
 
梦回云阳

回复时间:2016-9-4 15:04

专辑名称:旅途欢歌CDL
专辑艺人:群星
出版公司:珠江白天鹅音像出版社
ISRC编号:CN-F23-10-549-00/A.J6
资源格式:WAV


专辑介绍:
音乐响起,耳朵里的翩翩起舞,一曲惊人的音色,徜徉在丝滑细腻的涓涓细流里,精选的曲目,只因旋律响起那一刻的似曾相识,免除耳朵的纷拢,给您至尊音质享受,旅途欢歌,一路相随......

专辑曲目:
01.hard to love
02.roller coaster
03.blown away
04.dirt
05.begin again
06.follow your arrow
07.you and tequila
08.strong heart
09.time is love
10.loev will keep us alive
11.wide open spaces
12.kiss my county ass
13.all for love
14.qagon wheel
15.we are ne ver back together





----------------------------------------------
友情提醒:下载测试资源存放于免费网盘,不保证资源的长期有效;若有任何一方主张版权,请各管管或版版直接删除本帖,不用任何形式的通知我本人,谢谢。

华声论坛 影音帝国 官方QQ群
影视时空|音乐地带 QQ群:140288348 128111319 42933722
音乐快递QQ群:338549863 原声地带QQ群:344590352
高品质单曲QQ群:116060792 心情音乐QQ群:154659931
心情吟诵QQ群:190584521 音乐播放器QQ群:206520165
 
梦回云阳

回复时间:2016-9-4 15:04

按此在新窗口浏览图片





----------------------------------------------
友情提醒:下载测试资源存放于免费网盘,不保证资源的长期有效;若有任何一方主张版权,请各管管或版版直接删除本帖,不用任何形式的通知我本人,谢谢。

华声论坛 影音帝国 官方QQ群
影视时空|音乐地带 QQ群:140288348 128111319 42933722
音乐快递QQ群:338549863 原声地带QQ群:344590352
高品质单曲QQ群:116060792 心情音乐QQ群:154659931
心情吟诵QQ群:190584521 音乐播放器QQ群:206520165
 
梦回云阳

回复时间:2016-9-4 15:06

抓轨前检测



按此在新窗口浏览图片


按此在新窗口浏览图片


按此在新窗口浏览图片





----------------------------------------------
友情提醒:下载测试资源存放于免费网盘,不保证资源的长期有效;若有任何一方主张版权,请各管管或版版直接删除本帖,不用任何形式的通知我本人,谢谢。

华声论坛 影音帝国 官方QQ群
影视时空|音乐地带 QQ群:140288348 128111319 42933722
音乐快递QQ群:338549863 原声地带QQ群:344590352
高品质单曲QQ群:116060792 心情音乐QQ群:154659931
心情吟诵QQ群:190584521 音乐播放器QQ群:206520165
 
梦回云阳

回复时间:2016-9-4 15:07
EAC 抓取日志文件


Exact Audio Copy V0.99 prebeta 4 from 23. January 2008

EAC 抓取日志文件从27. 八月 2016, 16:34

群星 / 旅途欢歌CDL

使用驱动器 :MATSHITADVD-RAM UJ8E0 Adapter: 0 ID: 0

读取模式 : 暴发

组合读/写偏移校正 : 0
读取 Lead-In 和 Lead-Out : 否
用静音填充抓取中丢失偏移的采样 : 是
去除首尾静音块 : 否
在 CRC 计算中使用了空样本 : 否
已用接口 : Win NT 及 2000 本地 Win32 接口

所用输出格式 : 内部 WAV 函数
样本格式 : 44.100 Hz;16 Bit;立体声


被抓轨 CD 的 TOC

音轨 | 开始 | 长度 | 起始扇区 | 结尾扇区
--------------------------------------------------
1 | 0:00.00 | 3:42.03 | 0 | 16652
2 | 3:42.03 | 4:21.53 | 16653 | 36280
3 | 8:03.56 | 4:00.42 | 36281 | 54322
4 | 12:04.23 | 3:52.47 | 54323 | 71769
5 | 15:56.70 | 3:59.46 | 71770 | 89740
6 | 19:56.41 | 3:21.48 | 89741 | 104863
7 | 23:18.14 | 4:04.59 | 104864 | 123222
8 | 27:22.73 | 5:40.69 | 123223 | 148791
9 | 33:03.67 | 3:22.28 | 148792 | 163969
10 | 36:26.20 | 4:05.50 | 163970 | 182394
11 | 40:31.70 | 3:45.47 | 182395 | 199316
12 | 44:17.42 | 4:14.65 | 199317 | 218431
13 | 48:32.32 | 3:19.18 | 218432 | 233374
14 | 51:51.50 | 5:00.31 | 233375 | 255905
15 | 56:52.06 | 3:11.32 | 255906 | 270262


范围状态及错误

已选择范围

文件名 F:\音频抓轨\群星 - 旅途欢歌CDL.wav

计时问题 0:00:21
计时问题 0:02:27
计时问题 0:03:17
计时问题 0:03:32
计时问题 0:08:18
计时问题 0:15:01
计时问题 0:27:45
计时问题 0:39:59
计时问题 0:56:42

峰值电平 99.9 %
复制 CRC 99495085
复制结束

没有错误发生

状态报告结尾




----------------------------------------------
友情提醒:下载测试资源存放于免费网盘,不保证资源的长期有效;若有任何一方主张版权,请各管管或版版直接删除本帖,不用任何形式的通知我本人,谢谢。

华声论坛 影音帝国 官方QQ群
影视时空|音乐地带 QQ群:140288348 128111319 42933722
音乐快递QQ群:338549863 原声地带QQ群:344590352
高品质单曲QQ群:116060792 心情音乐QQ群:154659931
心情吟诵QQ群:190584521 音乐播放器QQ群:206520165
 
梦回云阳

回复时间:2016-9-4 15:08
所有音乐仅供测试及试听,音乐版权归原唱片公司所有,任何人不得用于商业用途!




----------------------------------------------
友情提醒:下载测试资源存放于免费网盘,不保证资源的长期有效;若有任何一方主张版权,请各管管或版版直接删除本帖,不用任何形式的通知我本人,谢谢。

华声论坛 影音帝国 官方QQ群
影视时空|音乐地带 QQ群:140288348 128111319 42933722
音乐快递QQ群:338549863 原声地带QQ群:344590352
高品质单曲QQ群:116060792 心情音乐QQ群:154659931
心情吟诵QQ群:190584521 音乐播放器QQ群:206520165
 
yykk2013

回复时间:2016-9-4 15:45
谢谢分享

 
张阳cn1

回复时间:2016-9-4 17:31
感谢分享。

 
晨君

回复时间:2016-9-4 17:49
谢谢分享!

 
znml

回复时间:2016-9-4 18:42
谢谢分享




----------------------------------------------
 
速育

回复时间:2016-9-4 19:08
谢谢分享!谢谢分享!

 
phua2008

回复时间:2016-9-4 19:17
谢谢楼主分享

 
liujun228

回复时间:2016-9-4 19:19
感谢分享

 
ldg008

回复时间:2016-9-4 20:34
谢谢LZ分享

 
mazmoom

回复时间:2016-9-4 20:51
感谢分享

 
雪亮亮

回复时间:2016-9-4 21:43
非常好听的国外音乐,谢谢分享

 
雨水煮茶

回复时间:2016-9-4 21:45
感谢分享

 
一本居士

回复时间:2016-9-4 22:00
谢谢分享

 
kc961

回复时间:2016-9-4 22:17
谢谢分享!

 
fengzhjf

回复时间:2016-9-4 22:44
好听~~~谢谢楼主~~

 
发新帖 新投票
 回帖
查看积分策略说明快速回复主题
你的用户名: 密码:   免费注册(只要30秒)


启用 Html 代码
使用个人签名
(请您文明上网理性发言!并遵守相关规定
   



Processed in 0.034953 s, 10 q - 无图精简版,sitemap,