·英王子或因情色丑闻面临调查 不享刑事豁免权·京东发声明辟谣刘强东奶茶“3000万分手费”传闻
发新帖  新投票  回帖 
79560个阅读者,417条回复 | 打印 | 订阅 | 收藏
炫舞e时空

发表时间:2016-9-10 23:14

情歌王子张信哲经典金曲 《选哲至爱情歌 DSD》3CD [WAV+CUE/320k/皮皮盘]   



炫舞e时空 发表在 音乐地带 华声论坛 http://bbs.voc.com.cn/forum-77-1.html










资源下载:

**** 本内容跟帖回复才可浏览 *****

[本帖最后由 炫舞e时空 于 2016-9-11 00:28 编辑]

本帖助威记录

lanshede1188 +1
看了楼主的帖,神马都是浮云
2016-10-27 22:07:57
chen3626 +1
你的帖子可以上新闻联播了
2016-10-25 12:30:26
空明绿竹 +1
我没有立即回复,因为生怕我庸俗不堪的回复玷污这少有的牛帖
2016-10-18 13:46:22
童心不同样 +1
感谢老天,感谢神仙姐姐让我看到这么好的帖子
2016-10-08 23:43:17
西西伯利亚 +1
你的帖子可以上新闻联播了
2016-10-07 21:00:44
总计:魅力8点 助威8查看所有助威>>

本帖最近评分记录
爱格格   2016-9-15 16:06  金钱  +20   感谢原抓分享~
爱格格   2016-9-15 16:06  魅力  +20   感谢原抓分享~



----------------------------------------------
华声论坛 影音帝国 官方QQ群
影视时空|音乐地带 QQ群:140288348 128111319 42933722
音乐快递QQ群:338549863 原声地带QQ群:344590352
高品质单曲QQ群:116060792 心情音乐QQ群:154659931
心情吟诵QQ群:190584521 音乐播放器QQ群:206520165

华声论坛 有你更精彩!!
 
炫舞e时空

回复时间:2016-9-10 23:33

按此在新窗口浏览图片

专辑名称:《选哲至爱情歌 DSD》 3CD
专辑艺人:张信哲
出版公司:长春电影制片厂银声音像出版社
ISRC: CN-D16-04-331-00/A.J6
资源类型:WAV+CUE/320k/mp3
原抓:炫舞e时空

专辑介绍:

张信哲——永远的情歌王子,让人难忘的经典歌曲,不得不爱...不能不爱。
珍藏·张信哲·让那些如同珍宝般的回忆与爱同行。
JEFF邀你一同穿梭爱情梦想与时空,带来爱情的美丽余味......




专辑曲目:

DISC-1《从开始到现在》

01.从开始到现在
02.究竟
03.My Memory
04.爱情余味
05.雾中机场
06.舍不得对不起
07.我好想
08.Goodbye Yesterday
09.如果你愿意
10.爱无怨无悔
11.信仰
12.别让情两难(VS范文芳)
13.爱就一个字
14.不要对他说
15.到处留情
16.有一点动心(VS刘嘉玲)
17.等风的旗


DISC-2《过火》

01.过火
02.爱不留
03.别怕我伤心
04.不做你的爱人
05.某某某
06.难以抗拒你的容颜
07.太想爱你
08.我能相信
09.爱如潮水
10.直觉
11.用情
12.宽容
13.找钥匙
14.我是真的爱你
15.忘情忘爱
16.只有你


DISC-3《回来》


01.回来
02.我是真的
03.难道
04.就等着你
05.两个人的森林
06.最想念的季节
07.惩罚
08.王子公主
09.美丽地平线
10.想你的夜
11.我们爱这个错
12.我最爱的女人
13.今夜唱什么歌
14.你心动了吗
15.你就这样离开我
16.舍不得你离开我



[本帖最后由 炫舞e时空 于 2016-9-10 23:39 编辑]




----------------------------------------------
华声论坛 影音帝国 官方QQ群
影视时空|音乐地带 QQ群:140288348 128111319 42933722
音乐快递QQ群:338549863 原声地带QQ群:344590352
高品质单曲QQ群:116060792 心情音乐QQ群:154659931
心情吟诵QQ群:190584521 音乐播放器QQ群:206520165

华声论坛 有你更精彩!!
 
炫舞e时空

回复时间:2016-9-10 23:37

按此在新窗口浏览图片
按此在新窗口浏览图片
按此在新窗口浏览图片
按此在新窗口浏览图片
按此在新窗口浏览图片


Exact Audio Copy V0.99 prebeta 4 from 23. January 2008

EAC 抓取日志文件从10. 七月 2016, 15:57

张信哲 / 选哲至爱情歌1

使用驱动器 :SlimtypeDVD A DS8A4S Adapter: 0 ID: 0

读取模式 : 保护
使用精确流 : 是
废除音频缓冲 : 是
使用 C2 指针 : 否

读取偏移校正 : 6
读取 Lead-In 和 Lead-Out : 否
用静音填充抓取中丢失偏移的采样 : 是
去除首尾静音块 : 否
在 CRC 计算中使用了空样本 : 否
已用接口 : Win NT 及 2000 本地 Win32 接口

所用输出格式 : 内部 WAV 函数
样本格式 : 44.100 Hz;16 Bit;立体声


被抓轨 CD 的 TOC

音轨 | 开始 | 长度 | 起始扇区 | 结尾扇区
--------------------------------------------------
1 | 0:00.00 | 4:38.26 | 0 | 20875
2 | 4:38.26 | 4:17.22 | 20876 | 40172
3 | 8:55.48 | 4:17.18 | 40173 | 59465
4 | 13:12.66 | 5:05.36 | 59466 | 82376
5 | 18:18.27 | 4:52.70 | 82377 | 104346
6 | 23:11.22 | 4:56.42 | 104347 | 126588
7 | 28:07.64 | 4:51.58 | 126589 | 148471
8 | 32:59.47 | 4:54.28 | 148472 | 170549
9 | 37:54.00 | 5:08.09 | 170550 | 193658
10 | 43:02.09 | 4:58.63 | 193659 | 216071
11 | 48:00.72 | 4:19.56 | 216072 | 235552
12 | 52:20.53 | 3:48.15 | 235553 | 252667
13 | 56:08.68 | 4:32.45 | 252668 | 273112
14 | 60:41.38 | 4:51.17 | 273113 | 294954
15 | 65:32.55 | 3:33.43 | 294955 | 310972
16 | 69:06.23 | 3:48.53 | 310973 | 328125
17 | 72:55.01 | 3:53.16 | 328126 | 345616


范围状态及错误

已选择范围

文件名 C:\Users\Administrator\Desktop\抓碟\选哲至爱情歌3CD\张信哲 - 选哲至爱情歌1.wav

峰值电平 100.0 %
范围质量 99.9 %
复制 CRC 2FC01D88
复制成功

没有错误发生


AccurateRip 概要

音轨 1 数据库中未见
音轨 2 数据库中未见
音轨 3 数据库中未见
音轨 4 数据库中未见
音轨 5 数据库中未见
音轨 6 数据库中未见
音轨 7 数据库中未见
音轨 8 数据库中未见
音轨 9 数据库中未见
音轨 10 数据库中未见
音轨 11 数据库中未见
音轨 12 数据库中未见
音轨 13 数据库中未见
音轨 14 数据库中未见
音轨 15 数据库中未见
音轨 16 数据库中未见
音轨 17 数据库中未见

没有任何音轨出现在 AccurateRip 数据库中

状态报告结尾

[本帖最后由 炫舞e时空 于 2016-9-10 23:40 编辑]





----------------------------------------------
华声论坛 影音帝国 官方QQ群
影视时空|音乐地带 QQ群:140288348 128111319 42933722
音乐快递QQ群:338549863 原声地带QQ群:344590352
高品质单曲QQ群:116060792 心情音乐QQ群:154659931
心情吟诵QQ群:190584521 音乐播放器QQ群:206520165

华声论坛 有你更精彩!!
 
炫舞e时空

回复时间:2016-9-10 23:42

按此在新窗口浏览图片

按此在新窗口浏览图片
按此在新窗口浏览图片
按此在新窗口浏览图片
按此在新窗口浏览图片


Exact Audio Copy V0.99 prebeta 4 from 23. January 2008

EAC 抓取日志文件从10. 七月 2016, 23:30

张信哲 / 过火

使用驱动器 :SlimtypeDVD A DS8A4S Adapter: 0 ID: 0

读取模式 : 暴发

读取偏移校正 : 6
读取 Lead-In 和 Lead-Out : 否
用静音填充抓取中丢失偏移的采样 : 是
去除首尾静音块 : 否
在 CRC 计算中使用了空样本 : 否
已用接口 : Win NT 及 2000 本地 Win32 接口

所用输出格式 : 内部 WAV 函数
样本格式 : 44.100 Hz;16 Bit;立体声


被抓轨 CD 的 TOC

音轨 | 开始 | 长度 | 起始扇区 | 结尾扇区
--------------------------------------------------
1 | 0:00.01 | 5:07.66 | 1 | 23091
2 | 5:07.67 | 4:51.74 | 23092 | 44990
3 | 9:59.66 | 4:57.05 | 44991 | 67270
4 | 14:56.71 | 4:16.61 | 67271 | 86531
5 | 19:13.57 | 4:51.30 | 86532 | 108386
6 | 24:05.12 | 3:57.39 | 108387 | 126200
7 | 28:02.51 | 4:54.47 | 126201 | 148297
8 | 32:57.23 | 4:24.66 | 148298 | 168163
9 | 37:22.14 | 4:35.58 | 168164 | 188846
10 | 41:57.72 | 5:34.03 | 188847 | 213899
11 | 47:32.00 | 5:14.69 | 213900 | 237518
12 | 52:46.69 | 5:17.69 | 237519 | 261362
13 | 58:04.63 | 4:49.29 | 261363 | 283066
14 | 62:54.17 | 5:17.42 | 283067 | 306883
15 | 68:11.59 | 5:34.73 | 306884 | 332006
16 | 73:46.57 | 5:38.07 | 332007 | 357363


范围状态及错误

已选择范围

文件名 C:\Users\Administrator\Desktop\抓碟\选哲至爱情歌3CD\CD2\张信哲 - 过火.wav

计时问题 0:01:24
计时问题 0:03:03
计时问题 0:07:58
计时问题 1:19:14 - 1:19:15
计时问题 1:19:17
计时问题 1:19:20 - 1:19:24

峰值电平 90.5 %
复制 CRC 7BC177D7
复制结束

没有错误发生


AccurateRip 概要

音轨 1 数据库中未见
音轨 2 数据库中未见
音轨 3 数据库中未见
音轨 4 数据库中未见
音轨 5 数据库中未见
音轨 6 数据库中未见
音轨 7 数据库中未见
音轨 8 数据库中未见
音轨 9 数据库中未见
音轨 10 数据库中未见
音轨 11 数据库中未见
音轨 12 数据库中未见
音轨 13 数据库中未见
音轨 14 数据库中未见
音轨 15 数据库中未见
音轨 16 数据库中未见

没有任何音轨出现在 AccurateRip 数据库中

状态报告结尾





----------------------------------------------
华声论坛 影音帝国 官方QQ群
影视时空|音乐地带 QQ群:140288348 128111319 42933722
音乐快递QQ群:338549863 原声地带QQ群:344590352
高品质单曲QQ群:116060792 心情音乐QQ群:154659931
心情吟诵QQ群:190584521 音乐播放器QQ群:206520165

华声论坛 有你更精彩!!
 
炫舞e时空

回复时间:2016-9-10 23:45

按此在新窗口浏览图片

按此在新窗口浏览图片
按此在新窗口浏览图片
按此在新窗口浏览图片
按此在新窗口浏览图片



Exact Audio Copy V0.99 prebeta 4 from 23. January 2008

EAC 抓取日志文件从11. 七月 2016, 20:25

张信哲 / 选哲至爱情歌 3

使用驱动器 :SlimtypeDVD A DS8A4S Adapter: 0 ID: 0

读取模式 : 保护
使用精确流 : 是
废除音频缓冲 : 是
使用 C2 指针 : 否

读取偏移校正 : 6
读取 Lead-In 和 Lead-Out : 否
用静音填充抓取中丢失偏移的采样 : 是
去除首尾静音块 : 否
在 CRC 计算中使用了空样本 : 否
已用接口 : Win NT 及 2000 本地 Win32 接口

所用输出格式 : 内部 WAV 函数
样本格式 : 44.100 Hz;16 Bit;立体声


被抓轨 CD 的 TOC

音轨 | 开始 | 长度 | 起始扇区 | 结尾扇区
--------------------------------------------------
1 | 0:00.00 | 4:39.54 | 0 | 20978
2 | 4:39.54 | 5:05.48 | 20979 | 43901
3 | 9:45.27 | 4:44.57 | 43902 | 65258
4 | 14:30.09 | 4:53.03 | 65259 | 87236
5 | 19:23.12 | 4:47.09 | 87237 | 108770
6 | 24:10.21 | 4:31.21 | 108771 | 129116
7 | 28:41.42 | 4:13.33 | 129117 | 148124
8 | 32:55.00 | 3:46.72 | 148125 | 165146
9 | 36:41.72 | 4:48.54 | 165147 | 186800
10 | 41:30.51 | 4:03.00 | 186801 | 205025
11 | 45:33.51 | 3:24.01 | 205026 | 220326
12 | 48:57.52 | 5:27.72 | 220327 | 244923
13 | 54:25.49 | 4:30.27 | 244924 | 265200
14 | 58:56.01 | 4:01.42 | 265201 | 283317
15 | 62:57.43 | 3:41.30 | 283318 | 299922
16 | 66:38.73 | 5:10.24 | 299923 | 323196


范围状态及错误

已选择范围

文件名 C:\Users\Administrator\Desktop\抓碟\选哲至爱情歌3CD\CD3\张信哲 - 选哲至爱情歌3.wav

峰值电平 100.0 %
范围质量 100.0 %
复制 CRC 62CABB23
复制成功

没有错误发生


AccurateRip 概要

音轨 1 数据库中未见
音轨 2 数据库中未见
音轨 3 数据库中未见
音轨 4 数据库中未见
音轨 5 数据库中未见
音轨 6 数据库中未见
音轨 7 数据库中未见
音轨 8 数据库中未见
音轨 9 数据库中未见
音轨 10 数据库中未见
音轨 11 数据库中未见
音轨 12 数据库中未见
音轨 13 数据库中未见
音轨 14 数据库中未见
音轨 15 数据库中未见
音轨 16 数据库中未见

没有任何音轨出现在 AccurateRip 数据库中

状态报告结尾





----------------------------------------------
华声论坛 影音帝国 官方QQ群
影视时空|音乐地带 QQ群:140288348 128111319 42933722
音乐快递QQ群:338549863 原声地带QQ群:344590352
高品质单曲QQ群:116060792 心情音乐QQ群:154659931
心情吟诵QQ群:190584521 音乐播放器QQ群:206520165

华声论坛 有你更精彩!!
 
炫舞e时空

回复时间:2016-9-10 23:47

免责声明:
本专辑仅供个人试听,请自觉于下载后24小时内删除,任何人不得用于商业用途!
如果喜欢本专辑,请购买正版,谢谢合作!





----------------------------------------------
华声论坛 影音帝国 官方QQ群
影视时空|音乐地带 QQ群:140288348 128111319 42933722
音乐快递QQ群:338549863 原声地带QQ群:344590352
高品质单曲QQ群:116060792 心情音乐QQ群:154659931
心情吟诵QQ群:190584521 音乐播放器QQ群:206520165

华声论坛 有你更精彩!!
 
lepaco

回复时间:2016-9-11 00:59
谢谢楼主的精彩分享

 
速育

回复时间:2016-9-11 08:18
谢谢楼主的分享

 
速育

回复时间:2016-9-11 08:19
谢谢楼主的分享

 
恋歌2015

回复时间:2016-9-11 08:33

 
听音ABC

回复时间:2016-9-11 08:37
感谢分享!!




----------------------------------------------
 
zhizhuxia0214

回复时间:2016-9-11 08:51
感谢分享多谢分享

 
wks1825868

回复时间:2016-9-11 08:51
好东西啊

 
星97

回复时间:2016-9-11 08:55
这u大姐基层代表赶出公司倒闭v赶回家

 
阿弥托佛

回复时间:2016-9-11 09:37
谢谢分享!




----------------------------------------------

佑天佑地佑人 送福送禄送寿
看经典美图到三晋!



 
liqy_002

回复时间:2016-9-11 09:48
收藏一下,支持

 
雨水煮茶

回复时间:2016-9-11 10:46
感谢分享~

 
ulee

回复时间:2016-9-11 10:57
感谢分享!

 
车行天下123

回复时间:2016-9-11 11:52

 
einkfred

回复时间:2016-9-11 13:44
情歌王子!张信哲

 
发新帖 新投票
 回帖
查看积分策略说明快速回复主题
你的用户名: 密码:   免费注册(只要30秒)


启用 Html 代码
使用个人签名
(请您文明上网理性发言!并遵守相关规定
   



Processed in 0.034150 s, 10 q - 无图精简版,sitemap,