发新帖  新投票  回帖 
189437个阅读者,800条回复 | 打印 | 订阅 | 收藏
梦回云阳

发表时间:2017-2-4 17:50

群星·欧美金唱盘CDB【WAV+CUE/百度】   



梦回云阳 发表在 音乐地带 华声论坛 http://bbs.voc.com.cn/forum-77-1.html










下载测试资源
**** 本内容跟帖回复才可浏览 *****



[本帖最后由 梦回云阳 于 2017-2-4 18:00 编辑]

本帖助威记录

kuzt +1
你的帖子可以上新闻联播了
2017-03-23 21:18:26
xin_bu2000 +1
看了楼主的帖,神马都是浮云
2017-03-23 13:46:04
cfbiao +1
比这精彩的帖子还有木有
2017-03-14 22:28:25
花飞无梦 +1
都是经典呀,很快我就要去看美女与野兽的电影了
2017-03-12 11:17:26
niucai +1
感谢老天,感谢神仙姐姐让我看到这么好的帖子
2017-03-10 17:51:58
总计:魅力8点 助威8查看所有助威>>

本帖最近评分记录
爱格格   2017-2-5 12:00  金钱  +20   永远经典的欧美英文歌曲~
爱格格   2017-2-5 12:00  魅力  +20   永远经典的欧美英文歌曲~



----------------------------------------------
友情提醒:下载测试资源存放于免费网盘,不保证资源的长期有效;若有任何一方主张版权,请各管管或版版直接删除本帖,不用任何形式的通知我本人,谢谢。

华声论坛 影音帝国 官方QQ群
影视时空|音乐地带 QQ群:140288348 128111319 42933722
音乐快递QQ群:338549863 原声地带QQ群:344590352
高品质单曲QQ群:116060792 心情音乐QQ群:154659931
心情吟诵QQ群:190584521 音乐播放器QQ群:206520165
 
梦回云阳

回复时间:2017-2-4 17:51

专辑名称:欧美金唱盘CDB
专辑艺人:群星
出版公司:广州新时代像音公司
ISRC编号:CN-F21-08-326-00/A.J6
资源格式:WAV


专辑介绍:
欧美经典英文老歌曲合集,熟悉又悠扬的欧美好歌经典重理,盘点历年经典欧美曲目歌曲。
汲取不可思议的音乐力量,打开刻骨铭心的昔日往事,深情的歌声把我们带进了那个充满真实情感的年代;
怀旧的歌声所带来的快东与哀愁,缥缈迷离,足以让我陷入如梦如幻的情调中......

专辑曲目:
01.昨日重现
02.人鬼情未了
03.因为我爱你
04.卡萨布兰卡
05.我将永远爱你
06.布列瑟农
07.爱你在心口难开
08.美女与野兽
09.说你爱我
10.心存相信
11.天堂里的另一天
12.谎言来之不易
13.当男女相爱时
14.阿根廷别为我哭泣
15.爱情故事
16.带走我有呼吸





----------------------------------------------
友情提醒:下载测试资源存放于免费网盘,不保证资源的长期有效;若有任何一方主张版权,请各管管或版版直接删除本帖,不用任何形式的通知我本人,谢谢。

华声论坛 影音帝国 官方QQ群
影视时空|音乐地带 QQ群:140288348 128111319 42933722
音乐快递QQ群:338549863 原声地带QQ群:344590352
高品质单曲QQ群:116060792 心情音乐QQ群:154659931
心情吟诵QQ群:190584521 音乐播放器QQ群:206520165
 
梦回云阳

回复时间:2017-2-4 17:53

按此在新窗口浏览图片





----------------------------------------------
友情提醒:下载测试资源存放于免费网盘,不保证资源的长期有效;若有任何一方主张版权,请各管管或版版直接删除本帖,不用任何形式的通知我本人,谢谢。

华声论坛 影音帝国 官方QQ群
影视时空|音乐地带 QQ群:140288348 128111319 42933722
音乐快递QQ群:338549863 原声地带QQ群:344590352
高品质单曲QQ群:116060792 心情音乐QQ群:154659931
心情吟诵QQ群:190584521 音乐播放器QQ群:206520165
 
梦回云阳

回复时间:2017-2-4 17:54

按此在新窗口浏览图片





----------------------------------------------
友情提醒:下载测试资源存放于免费网盘,不保证资源的长期有效;若有任何一方主张版权,请各管管或版版直接删除本帖,不用任何形式的通知我本人,谢谢。

华声论坛 影音帝国 官方QQ群
影视时空|音乐地带 QQ群:140288348 128111319 42933722
音乐快递QQ群:338549863 原声地带QQ群:344590352
高品质单曲QQ群:116060792 心情音乐QQ群:154659931
心情吟诵QQ群:190584521 音乐播放器QQ群:206520165
 
梦回云阳

回复时间:2017-2-4 17:54

按此在新窗口浏览图片





----------------------------------------------
友情提醒:下载测试资源存放于免费网盘,不保证资源的长期有效;若有任何一方主张版权,请各管管或版版直接删除本帖,不用任何形式的通知我本人,谢谢。

华声论坛 影音帝国 官方QQ群
影视时空|音乐地带 QQ群:140288348 128111319 42933722
音乐快递QQ群:338549863 原声地带QQ群:344590352
高品质单曲QQ群:116060792 心情音乐QQ群:154659931
心情吟诵QQ群:190584521 音乐播放器QQ群:206520165
 
梦回云阳

回复时间:2017-2-4 17:56

抓轨前检测

按此在新窗口浏览图片

按此在新窗口浏览图片

按此在新窗口浏览图片





----------------------------------------------
友情提醒:下载测试资源存放于免费网盘,不保证资源的长期有效;若有任何一方主张版权,请各管管或版版直接删除本帖,不用任何形式的通知我本人,谢谢。

华声论坛 影音帝国 官方QQ群
影视时空|音乐地带 QQ群:140288348 128111319 42933722
音乐快递QQ群:338549863 原声地带QQ群:344590352
高品质单曲QQ群:116060792 心情音乐QQ群:154659931
心情吟诵QQ群:190584521 音乐播放器QQ群:206520165
 
梦回云阳

回复时间:2017-2-4 17:58
EAC 抓取日志文件

Exact Audio Copy V0.99 prebeta 4 from 23. January 2008

EAC 抓取日志文件从10. 一月 2017, 14:57

群星 / 欧美金唱盘CDB

使用驱动器 :MATSHITADVD-RAM UJ8E0 Adapter: 0 ID: 0

读取模式 : 保护
使用精确流 : 是
废除音频缓冲 : 否
使用 C2 指针 : 否

组合读/写偏移校正 : 0
读取 Lead-In 和 Lead-Out : 否
用静音填充抓取中丢失偏移的采样 : 是
去除首尾静音块 : 否
在 CRC 计算中使用了空样本 : 否
已用接口 : Win NT 及 2000 本地 Win32 接口

所用输出格式 : 内部 WAV 函数
样本格式 : 44.100 Hz;16 Bit;立体声


被抓轨 CD 的 TOC

音轨 | 开始 | 长度 | 起始扇区 | 结尾扇区
--------------------------------------------------
1 | 0:00.00 | 4:00.10 | 0 | 18009
2 | 4:00.10 | 3:40.20 | 18010 | 34529
3 | 7:40.30 | 3:20.32 | 34530 | 49561
4 | 11:00.62 | 4:39.52 | 49562 | 70538
5 | 15:40.39 | 4:35.05 | 70539 | 91168
6 | 20:15.44 | 5:29.71 | 91169 | 115914
7 | 25:45.40 | 3:41.42 | 115915 | 132531
8 | 29:27.07 | 4:03.50 | 132532 | 150806
9 | 33:30.57 | 4:02.27 | 150807 | 168983
10 | 37:33.09 | 4:35.18 | 168984 | 189626
11 | 42:08.27 | 5:25.44 | 189627 | 214045
12 | 47:33.71 | 2:49.27 | 214046 | 226747
13 | 50:23.23 | 3:53.35 | 226748 | 244257
14 | 54:16.58 | 5:42.54 | 244258 | 269961
15 | 59:59.37 | 3:11.72 | 269962 | 284358
16 | 63:11.34 | 4:23.48 | 284359 | 304131


范围状态及错误

已选择范围

文件名 F:\音频抓轨\群星 - 欧美金唱盘CDB.wav

峰值电平 100.0 %
范围质量 99.9 %
复制 CRC 23302C10
复制成功

没有错误发生

状态报告结尾




----------------------------------------------
友情提醒:下载测试资源存放于免费网盘,不保证资源的长期有效;若有任何一方主张版权,请各管管或版版直接删除本帖,不用任何形式的通知我本人,谢谢。

华声论坛 影音帝国 官方QQ群
影视时空|音乐地带 QQ群:140288348 128111319 42933722
音乐快递QQ群:338549863 原声地带QQ群:344590352
高品质单曲QQ群:116060792 心情音乐QQ群:154659931
心情吟诵QQ群:190584521 音乐播放器QQ群:206520165
 
梦回云阳

回复时间:2017-2-4 17:59
所有音乐仅供测试及试听,音乐版权归原唱片公司所有,任何人不得用于商业用途!




----------------------------------------------
友情提醒:下载测试资源存放于免费网盘,不保证资源的长期有效;若有任何一方主张版权,请各管管或版版直接删除本帖,不用任何形式的通知我本人,谢谢。

华声论坛 影音帝国 官方QQ群
影视时空|音乐地带 QQ群:140288348 128111319 42933722
音乐快递QQ群:338549863 原声地带QQ群:344590352
高品质单曲QQ群:116060792 心情音乐QQ群:154659931
心情吟诵QQ群:190584521 音乐播放器QQ群:206520165
 
gzgjz

回复时间:2017-2-4 18:20
感谢云阳老师的分享

 
南街

回复时间:2017-2-4 18:54
感谢云阳老师的分享

 
大峡谷123

回复时间:2017-2-4 19:13
谢谢楼主分享精品!!!!!!

 
雨水煮茶

回复时间:2017-2-4 19:52
感谢分享

 
刘伟2017

回复时间:2017-2-4 20:28
让人感动的歌,谢谢。

 
csq154527

回复时间:2017-2-4 20:35
谢谢云阳分享




----------------------------------------------
戴 上 [ 耳 机 ] 、 世 界 与 我 无 关 、
 
奈维

回复时间:2017-2-4 20:57
感谢分享

 
ZHSHGANG

回复时间:2017-2-4 21:47
非常好听,谢谢分享

 
znml

回复时间:2017-2-4 22:58
谢谢分享




----------------------------------------------
 
雪亮亮

回复时间:2017-2-4 23:28
刚欣赏了CDA,又有CDB欣赏了,谢谢

 
xzs123abc

回复时间:2017-2-4 23:31
谢谢分享啦

 
haowensam

回复时间:2017-2-4 23:39
感谢分享!

 
发新帖 新投票
 回帖
查看积分策略说明快速回复主题
你的用户名: 密码:   免费注册(只要30秒)


启用 Html 代码
使用个人签名
(请您文明上网理性发言!并遵守相关规定
   



Processed in 0.028869 s, 10 q - 无图精简版,sitemap,