发新帖  新投票  回帖 
439547个阅读者,1112条回复 | 打印 | 订阅 | 收藏
梦回云阳

发表时间:2017-2-11 14:39

群星·欧美金唱盘CDC【WAV+CUE/百度】   



梦回云阳 发表在 音乐地带 华声论坛 http://bbs.voc.com.cn/forum-77-1.html










下载测试资源
**** 本内容跟帖回复才可浏览 *****


本帖助威记录

remondwu +1
你的帖子可以上新闻联播了
2017-10-15 09:27:05
经11 +1
看了楼主的帖,神马都是浮云
2017-05-11 23:59:27
宇泰汽修 +1
你的帖子可以上新闻联播了
2017-05-09 14:45:10
转角路过 +1
看了楼主的帖,神马都是浮云
2017-05-07 09:35:41
七ss月 +1
比这精彩的帖子还有木有
2017-05-03 19:03:03
总计:魅力16点 助威14查看所有助威>>

本帖最近评分记录
音乐我心   2017-2-13 10:51  金钱  +20   感谢云阳版主的精彩原抓分享!辛苦了!
音乐我心   2017-2-13 10:51  魅力  +20   感谢云阳版主的精彩原抓分享!辛苦了!



----------------------------------------------
友情提醒:下载测试资源存放于免费网盘,不保证资源的长期有效;若有任何一方主张版权,请各管管或版版直接删除本帖,不用任何形式的通知我本人,谢谢。

华声论坛 影音帝国 官方QQ群
影视时空|音乐地带 QQ群:140288348 128111319 42933722
音乐快递QQ群:338549863 原声地带QQ群:344590352
高品质单曲QQ群:116060792 心情音乐QQ群:154659931
心情吟诵QQ群:190584521 音乐播放器QQ群:206520165
 
梦回云阳

回复时间:2017-2-11 14:39

专辑名称:欧美金唱盘CDC
专辑艺人:群星
出版公司:广州新时代像音公司
ISRC编号:CN-F21-08-326-00/A.J6
资源格式:WAV


专辑介绍:
欧美经典英文老歌曲合集,熟悉又悠扬的欧美好歌经典重理,盘点历年经典欧美曲目歌曲。
汲取不可思议的音乐力量,打开刻骨铭心的昔日往事,深情的歌声把我们带进了那个充满真实情感的年代;
怀旧的歌声所带来的快东与哀愁,缥缈迷离,足以让我陷入如梦如幻的情调中......

专辑曲目:
01.加洲旅馆
02.无心快语
03.爱无止境
04.此情可待
05.斯卡布罗集市
06.对你倾情
07.以吻封缄
08.你并不孤单
09.电话诉衷肠
10.乡村路带我回家
11.今晚你能感觉到爱吗
12.泪洒天堂
13.寂静之声
14.我发誓
15.英雄
16.友谊天长地久





----------------------------------------------
友情提醒:下载测试资源存放于免费网盘,不保证资源的长期有效;若有任何一方主张版权,请各管管或版版直接删除本帖,不用任何形式的通知我本人,谢谢。

华声论坛 影音帝国 官方QQ群
影视时空|音乐地带 QQ群:140288348 128111319 42933722
音乐快递QQ群:338549863 原声地带QQ群:344590352
高品质单曲QQ群:116060792 心情音乐QQ群:154659931
心情吟诵QQ群:190584521 音乐播放器QQ群:206520165
 
梦回云阳

回复时间:2017-2-11 14:40

按此在新窗口浏览图片





----------------------------------------------
友情提醒:下载测试资源存放于免费网盘,不保证资源的长期有效;若有任何一方主张版权,请各管管或版版直接删除本帖,不用任何形式的通知我本人,谢谢。

华声论坛 影音帝国 官方QQ群
影视时空|音乐地带 QQ群:140288348 128111319 42933722
音乐快递QQ群:338549863 原声地带QQ群:344590352
高品质单曲QQ群:116060792 心情音乐QQ群:154659931
心情吟诵QQ群:190584521 音乐播放器QQ群:206520165
 
梦回云阳

回复时间:2017-2-11 14:41

按此在新窗口浏览图片





----------------------------------------------
友情提醒:下载测试资源存放于免费网盘,不保证资源的长期有效;若有任何一方主张版权,请各管管或版版直接删除本帖,不用任何形式的通知我本人,谢谢。

华声论坛 影音帝国 官方QQ群
影视时空|音乐地带 QQ群:140288348 128111319 42933722
音乐快递QQ群:338549863 原声地带QQ群:344590352
高品质单曲QQ群:116060792 心情音乐QQ群:154659931
心情吟诵QQ群:190584521 音乐播放器QQ群:206520165
 
梦回云阳

回复时间:2017-2-11 14:41

按此在新窗口浏览图片





----------------------------------------------
友情提醒:下载测试资源存放于免费网盘,不保证资源的长期有效;若有任何一方主张版权,请各管管或版版直接删除本帖,不用任何形式的通知我本人,谢谢。

华声论坛 影音帝国 官方QQ群
影视时空|音乐地带 QQ群:140288348 128111319 42933722
音乐快递QQ群:338549863 原声地带QQ群:344590352
高品质单曲QQ群:116060792 心情音乐QQ群:154659931
心情吟诵QQ群:190584521 音乐播放器QQ群:206520165
 
梦回云阳

回复时间:2017-2-11 14:44

抓轨前检测
按此在新窗口浏览图片


按此在新窗口浏览图片


按此在新窗口浏览图片





----------------------------------------------
友情提醒:下载测试资源存放于免费网盘,不保证资源的长期有效;若有任何一方主张版权,请各管管或版版直接删除本帖,不用任何形式的通知我本人,谢谢。

华声论坛 影音帝国 官方QQ群
影视时空|音乐地带 QQ群:140288348 128111319 42933722
音乐快递QQ群:338549863 原声地带QQ群:344590352
高品质单曲QQ群:116060792 心情音乐QQ群:154659931
心情吟诵QQ群:190584521 音乐播放器QQ群:206520165
 
梦回云阳

回复时间:2017-2-11 14:47
EAC 抓取日志文件

Exact Audio Copy V0.99 prebeta 4 from 23. January 2008

EAC 抓取日志文件从10. 一月 2017, 16:55

群星 / 欧美金唱盘CDC

使用驱动器 :MATSHITADVD-RAM UJ8E0 Adapter: 0 ID: 0

读取模式 : 保护
使用精确流 : 是
废除音频缓冲 : 否
使用 C2 指针 : 否

组合读/写偏移校正 : 0
读取 Lead-In 和 Lead-Out : 否
用静音填充抓取中丢失偏移的采样 : 是
去除首尾静音块 : 否
在 CRC 计算中使用了空样本 : 否
已用接口 : Win NT 及 2000 本地 Win32 接口

所用输出格式 : 内部 WAV 函数
样本格式 : 44.100 Hz;16 Bit;立体声


被抓轨 CD 的 TOC

音轨 | 开始 | 长度 | 起始扇区 | 结尾扇区
--------------------------------------------------
1 | 0:00.00 | 7:04.28 | 0 | 31827
2 | 7:04.28 | 5:02.57 | 31828 | 54534
3 | 12:07.10 | 4:41.43 | 54535 | 75652
4 | 16:48.53 | 4:26.32 | 75653 | 95634
5 | 21:15.10 | 4:15.00 | 95635 | 114759
6 | 25:30.10 | 4:10.10 | 114760 | 133519
7 | 29:40.20 | 2:37.01 | 133520 | 145295
8 | 32:17.21 | 6:04.28 | 145296 | 172623
9 | 38:21.49 | 6:18.49 | 172624 | 201022
10 | 44:40.23 | 3:19.35 | 201023 | 215982
11 | 47:59.58 | 3:57.73 | 215983 | 233830
12 | 51:57.56 | 4:34.53 | 233831 | 254433
13 | 56:32.34 | 3:07.12 | 254434 | 268470
14 | 59:39.46 | 3:55.52 | 268471 | 286147
15 | 63:35.23 | 4:25.57 | 286148 | 306079
16 | 68:01.05 | 3:02.24 | 306080 | 319753


范围状态及错误

已选择范围

文件名 F:\音频抓轨\群星 - 欧美金唱盘CDC.wav

峰值电平 100.0 %
范围质量 99.9 %
复制 CRC 1CCB1F31
复制成功

没有错误发生

状态报告结尾




----------------------------------------------
友情提醒:下载测试资源存放于免费网盘,不保证资源的长期有效;若有任何一方主张版权,请各管管或版版直接删除本帖,不用任何形式的通知我本人,谢谢。

华声论坛 影音帝国 官方QQ群
影视时空|音乐地带 QQ群:140288348 128111319 42933722
音乐快递QQ群:338549863 原声地带QQ群:344590352
高品质单曲QQ群:116060792 心情音乐QQ群:154659931
心情吟诵QQ群:190584521 音乐播放器QQ群:206520165
 
梦回云阳

回复时间:2017-2-11 14:48
所有音乐仅供测试及试听,音乐版权归原唱片公司所有,任何人不得用于商业用途!




----------------------------------------------
友情提醒:下载测试资源存放于免费网盘,不保证资源的长期有效;若有任何一方主张版权,请各管管或版版直接删除本帖,不用任何形式的通知我本人,谢谢。

华声论坛 影音帝国 官方QQ群
影视时空|音乐地带 QQ群:140288348 128111319 42933722
音乐快递QQ群:338549863 原声地带QQ群:344590352
高品质单曲QQ群:116060792 心情音乐QQ群:154659931
心情吟诵QQ群:190584521 音乐播放器QQ群:206520165
 
li1962888

回复时间:2017-2-11 14:51
祝福朋友们:圆.梦圆.情圆.福圆.合家团圆!万事皆圆!元宵节快乐!

 
梦回云阳

回复时间:2017-2-11 14:54
各位元宵节快乐!




----------------------------------------------
友情提醒:下载测试资源存放于免费网盘,不保证资源的长期有效;若有任何一方主张版权,请各管管或版版直接删除本帖,不用任何形式的通知我本人,谢谢。

华声论坛 影音帝国 官方QQ群
影视时空|音乐地带 QQ群:140288348 128111319 42933722
音乐快递QQ群:338549863 原声地带QQ群:344590352
高品质单曲QQ群:116060792 心情音乐QQ群:154659931
心情吟诵QQ群:190584521 音乐播放器QQ群:206520165
 
10894

回复时间:2017-2-11 15:15
多謝分享.

 
ijk925

回复时间:2017-2-11 15:44
ddddddddddddddd

 
Awakeing

回复时间:2017-2-11 16:39
谢谢分享

 
蓝山咖啡一二

回复时间:2017-2-11 16:51
好多歌曲我都有啊,但还是要感谢LZ啦

 
longshi5

回复时间:2017-2-11 17:13
谢谢版主的分享

 
l老人头

回复时间:2017-2-11 17:20
感谢分享!

 
gzgjz

回复时间:2017-2-11 17:46
感谢云阳老师分享

 
有法无天?

回复时间:2017-2-11 18:07
多謝分享

 
yjqz

回复时间:2017-2-11 18:53
演技高超,欣赏了

 
hgheblifeng

回复时间:2017-2-11 19:20
谢谢楼主

 
发新帖 新投票
 回帖
查看积分策略说明快速回复主题
你的用户名: 密码:   免费注册(只要30秒)


启用 Html 代码
使用个人签名
(请您文明上网理性发言!并遵守相关规定
   



Processed in 0.026863 s, 10 q - 无图精简版,sitemap,