发新帖  新投票  回帖 
732250个阅读者,1209条回复 | 打印 | 订阅 | 收藏
梦回云阳

发表时间:2017-3-10 17:34

群星·欧美金唱盘CDD【WAV+CUE/百度】   



梦回云阳 发表在 音乐地带 华声论坛 http://bbs.voc.com.cn/forum-77-1.html










下载测试资源
**** 本内容跟帖回复才可浏览 *****


本帖助威记录

remondwu +1
很好
2017-10-14 21:24:28
打的就是你 +1
你的帖子可以上新闻联播了
2017-07-23 14:19:52
geyeg +1
终于等到了
2017-07-14 23:15:18
海兴金源驾校 +1
经典的歌曲
2017-07-07 11:43:31
13xiaowang +1
你的帖子可以上新闻联播了
2017-06-10 22:02:23
总计:魅力11点 助威11查看所有助威>>

本帖最近评分记录
爱格格   2017-3-12 23:10  金钱  +20   好帖
爱格格   2017-3-12 23:10  魅力  +20   好帖



----------------------------------------------
友情提醒:下载测试资源存放于免费网盘,不保证资源的长期有效;若有任何一方主张版权,请各管管或版版直接删除本帖,不用任何形式的通知我本人,谢谢。

华声论坛 影音帝国 官方QQ群
影视时空|音乐地带 QQ群:140288348 128111319 42933722
音乐快递QQ群:338549863 原声地带QQ群:344590352
高品质单曲QQ群:116060792 心情音乐QQ群:154659931
心情吟诵QQ群:190584521 音乐播放器QQ群:206520165
 
梦回云阳

回复时间:2017-3-10 17:35

专辑名称:欧美金唱盘CDD
专辑艺人:群星
出版公司:广州新时代像音公司
ISRC编号:CN-F21-08-326-00/A.J6
资源格式:WAV


专辑介绍:
欧美经典英文老歌曲合集,熟悉又悠扬的欧美好歌经典重理,盘点历年经典欧美曲目歌曲。
汲取不可思议的音乐力量,打开刻骨铭心的昔日往事,深情的歌声把我们带进了那个充满真实情感的年代;
怀旧的歌声所带来的快东与哀愁,缥缈迷离,足以让我陷入如梦如幻的情调中......

专辑曲目:
01.英雄
02.好男人
03.我怎么能不爱你
04.夜色
05.崭新的世界
06.此情用不移
07.爱你一生一世
08.我知道我爱你
09.当你说没关系
10.有准备明天才更好
11.永远不会伤害你的心
12.背叛
13.咫尺天涯
14.有你相依
15.路的尽头
16.惟有时光





----------------------------------------------
友情提醒:下载测试资源存放于免费网盘,不保证资源的长期有效;若有任何一方主张版权,请各管管或版版直接删除本帖,不用任何形式的通知我本人,谢谢。

华声论坛 影音帝国 官方QQ群
影视时空|音乐地带 QQ群:140288348 128111319 42933722
音乐快递QQ群:338549863 原声地带QQ群:344590352
高品质单曲QQ群:116060792 心情音乐QQ群:154659931
心情吟诵QQ群:190584521 音乐播放器QQ群:206520165
 
梦回云阳

回复时间:2017-3-10 17:36

按此在新窗口浏览图片





----------------------------------------------
友情提醒:下载测试资源存放于免费网盘,不保证资源的长期有效;若有任何一方主张版权,请各管管或版版直接删除本帖,不用任何形式的通知我本人,谢谢。

华声论坛 影音帝国 官方QQ群
影视时空|音乐地带 QQ群:140288348 128111319 42933722
音乐快递QQ群:338549863 原声地带QQ群:344590352
高品质单曲QQ群:116060792 心情音乐QQ群:154659931
心情吟诵QQ群:190584521 音乐播放器QQ群:206520165
 
梦回云阳

回复时间:2017-3-10 17:37

按此在新窗口浏览图片





----------------------------------------------
友情提醒:下载测试资源存放于免费网盘,不保证资源的长期有效;若有任何一方主张版权,请各管管或版版直接删除本帖,不用任何形式的通知我本人,谢谢。

华声论坛 影音帝国 官方QQ群
影视时空|音乐地带 QQ群:140288348 128111319 42933722
音乐快递QQ群:338549863 原声地带QQ群:344590352
高品质单曲QQ群:116060792 心情音乐QQ群:154659931
心情吟诵QQ群:190584521 音乐播放器QQ群:206520165
 
梦回云阳

回复时间:2017-3-10 17:39

按此在新窗口浏览图片





----------------------------------------------
友情提醒:下载测试资源存放于免费网盘,不保证资源的长期有效;若有任何一方主张版权,请各管管或版版直接删除本帖,不用任何形式的通知我本人,谢谢。

华声论坛 影音帝国 官方QQ群
影视时空|音乐地带 QQ群:140288348 128111319 42933722
音乐快递QQ群:338549863 原声地带QQ群:344590352
高品质单曲QQ群:116060792 心情音乐QQ群:154659931
心情吟诵QQ群:190584521 音乐播放器QQ群:206520165
 
梦回云阳

回复时间:2017-3-10 17:40

抓轨前检测

按此在新窗口浏览图片


按此在新窗口浏览图片


按此在新窗口浏览图片



[本帖最后由 梦回云阳 于 2017-3-10 17:41 编辑]




----------------------------------------------
友情提醒:下载测试资源存放于免费网盘,不保证资源的长期有效;若有任何一方主张版权,请各管管或版版直接删除本帖,不用任何形式的通知我本人,谢谢。

华声论坛 影音帝国 官方QQ群
影视时空|音乐地带 QQ群:140288348 128111319 42933722
音乐快递QQ群:338549863 原声地带QQ群:344590352
高品质单曲QQ群:116060792 心情音乐QQ群:154659931
心情吟诵QQ群:190584521 音乐播放器QQ群:206520165
 
梦回云阳

回复时间:2017-3-10 17:43
EAC 抓取日志文件

Exact Audio Copy V0.99 prebeta 4 from 23. January 2008

EAC 抓取日志文件从10. 一月 2017, 17:41

群星 / 欧美金唱盘CDD

使用驱动器 :MATSHITADVD-RAM UJ8E0 Adapter: 0 ID: 0

读取模式 : 保护
使用精确流 : 是
废除音频缓冲 : 否
使用 C2 指针 : 否

组合读/写偏移校正 : 0
读取 Lead-In 和 Lead-Out : 否
用静音填充抓取中丢失偏移的采样 : 是
去除首尾静音块 : 否
在 CRC 计算中使用了空样本 : 否
已用接口 : Win NT 及 2000 本地 Win32 接口

所用输出格式 : 内部 WAV 函数
样本格式 : 44.100 Hz;16 Bit;立体声


被抓轨 CD 的 TOC

音轨 | 开始 | 长度 | 起始扇区 | 结尾扇区
--------------------------------------------------
1 | 0:00.00 | 4:22.22 | 0 | 19671
2 | 4:22.22 | 3:24.09 | 19672 | 34980
3 | 7:46.31 | 4:37.49 | 34981 | 55804
4 | 12:24.05 | 4:00.38 | 55805 | 73842
5 | 16:24.43 | 4:14.11 | 73843 | 92903
6 | 20:38.54 | 4:03.65 | 92904 | 111193
7 | 24:42.44 | 2:53.06 | 111194 | 124174
8 | 27:35.50 | 4:11.74 | 124175 | 143073
9 | 31:47.49 | 4:23.06 | 143074 | 162804
10 | 36:10.55 | 3:22.00 | 162805 | 177954
11 | 39:32.55 | 4:49.08 | 177955 | 199637
12 | 44:21.63 | 5:50.01 | 199638 | 225888
13 | 50:11.64 | 3:58.30 | 225889 | 243768
14 | 54:10.19 | 3:41.54 | 243769 | 260397
15 | 57:51.73 | 5:52.56 | 260398 | 286853
16 | 63:44.54 | 3:39.53 | 286854 | 303331


范围状态及错误

已选择范围

文件名 F:\音频抓轨\群星 - 欧美金唱盘CDD.wav

峰值电平 100.0 %
范围质量 99.9 %
复制 CRC 9B71E4EC
复制成功

没有错误发生

状态报告结尾




----------------------------------------------
友情提醒:下载测试资源存放于免费网盘,不保证资源的长期有效;若有任何一方主张版权,请各管管或版版直接删除本帖,不用任何形式的通知我本人,谢谢。

华声论坛 影音帝国 官方QQ群
影视时空|音乐地带 QQ群:140288348 128111319 42933722
音乐快递QQ群:338549863 原声地带QQ群:344590352
高品质单曲QQ群:116060792 心情音乐QQ群:154659931
心情吟诵QQ群:190584521 音乐播放器QQ群:206520165
 
梦回云阳

回复时间:2017-3-10 17:44
所有音乐仅供测试及试听,音乐版权归原唱片公司所有,任何人不得用于商业用途!




----------------------------------------------
友情提醒:下载测试资源存放于免费网盘,不保证资源的长期有效;若有任何一方主张版权,请各管管或版版直接删除本帖,不用任何形式的通知我本人,谢谢。

华声论坛 影音帝国 官方QQ群
影视时空|音乐地带 QQ群:140288348 128111319 42933722
音乐快递QQ群:338549863 原声地带QQ群:344590352
高品质单曲QQ群:116060792 心情音乐QQ群:154659931
心情吟诵QQ群:190584521 音乐播放器QQ群:206520165
 
gzgjz

回复时间:2017-3-10 18:41
感谢分享 老师辛苦

 
nbzsfzyh

回复时间:2017-3-10 19:03
这个不错的啊-----------------

 
hao030330

回复时间:2017-3-10 19:11

 
dk2852170

回复时间:2017-3-10 19:18
非常优美的歌曲、谢谢楼主分享!

 
dzy748282

回复时间:2017-3-10 19:29
由衷感谢版主给力分享!

 
有法无天?

回复时间:2017-3-10 19:39
感谢分享

 
longshi5

回复时间:2017-3-10 19:56
终于等来啦4,谢谢版主的分享。

 
csq154527

回复时间:2017-3-10 20:32
谢谢云阳版主分享




----------------------------------------------
戴 上 [ 耳 机 ] 、 世 界 与 我 无 关 、
 
雨水煮茶

回复时间:2017-3-10 21:25
感谢分享

 
tanghaibo2009

回复时间:2017-3-10 22:13
谢谢楼主分享!

 
4225762

回复时间:2017-3-10 22:42
谢谢楼主分享!

 
putishu5091

回复时间:2017-3-10 23:16
谢谢楼主分享好歌曲

 
发新帖 新投票
 回帖
查看积分策略说明快速回复主题
你的用户名: 密码:   免费注册(只要30秒)


启用 Html 代码
使用个人签名
(请您文明上网理性发言!并遵守相关规定
   



Processed in 0.028600 s, 10 q - 无图精简版,sitemap,