发新帖  新投票  回帖 
372294个阅读者,1467条回复 | 打印 | 订阅 | 收藏
章鱼2012

发表时间:2017-4-1 20:14

车载CD《华语老歌成名曲》精选特辑CD1[WAV/CUE/320k pp]   



章鱼2012 发表在 音乐地带 华声论坛 http://bbs.voc.com.cn/forum-77-1.html




下载

**** 本内容跟帖回复才可浏览 *****

本帖助威记录

六月天00001 +1
牛!估计我这辈子再也见不到这样的帖子了
2017-09-24 16:31:59
吕开胜 +1
非常好
2017-09-12 18:56:35
xiaocai558 +1
牛!估计我这辈子再也见不到这样的帖子了
2017-07-07 16:54:47
度风2000 +1
看了你的帖子,今天饭钱又省了。
2017-07-05 16:22:46
gdswld +1
比这精彩的帖子还有木有
2017-06-15 14:07:55
总计:魅力31点 助威25查看所有助威>>

本帖最近评分记录
爱格格   2017-4-2 13:47  金钱  +20   感谢章鱼无私精彩原抓分享!
爱格格   2017-4-2 13:47  魅力  +20   感谢章鱼无私精彩原抓分享!



----------------------------------------------
华声论坛 影音帝国 官方QQ群

影视时空|音乐地带 QQ群:140288348 128111319 42933722
音乐快递QQ群:338549863 原声地带QQ群:344590352
高品质单曲QQ群:116060792 心情音乐QQ群:154659931
心情吟诵QQ群:190584521 音乐播放器QQ群:206520165
华声论坛 有你更精彩!!
 
章鱼2012

回复时间:2017-4-1 20:15

按此在新窗口浏览图片

按此在新窗口浏览图片

按此在新窗口浏览图片





----------------------------------------------
华声论坛 影音帝国 官方QQ群

影视时空|音乐地带 QQ群:140288348 128111319 42933722
音乐快递QQ群:338549863 原声地带QQ群:344590352
高品质单曲QQ群:116060792 心情音乐QQ群:154659931
心情吟诵QQ群:190584521 音乐播放器QQ群:206520165
华声论坛 有你更精彩!!
 
章鱼2012

回复时间:2017-4-1 20:16

专辑名称:车载CD《华语老歌成名曲》精选特辑8CD
专辑艺人:群星
出版发行:武汉音像出版社
ISRC:CN-F05-07-328-00/AJ6
资源原抓:章鱼
专辑类型:WAV/CUE

专辑介绍:

浪游音乐的旅行者,自由如风,忠于自我的潇洒态度,温暖弹唱的动人心声。
岁月的点滴漂浮在音符里,永恒的旋律,永久的回味。

专辑曲目:

《华语老歌成名曲》DISC-1
01.恋曲1990
02.朋友别哭
03.别怕我伤心
04.约在某一天
05.伤痕
06.大海
07.为爱犯了罪
08.大约在冬季
09.一千个伤心的理由
10.别问我是谁
11.原来你什么都不想要
12.舍不得把眼睛睁开
13.爱我的人和我爱的人
14.爱情的故事
15.让我一次爱个够
16.爱上一个不回家的人





----------------------------------------------
华声论坛 影音帝国 官方QQ群

影视时空|音乐地带 QQ群:140288348 128111319 42933722
音乐快递QQ群:338549863 原声地带QQ群:344590352
高品质单曲QQ群:116060792 心情音乐QQ群:154659931
心情吟诵QQ群:190584521 音乐播放器QQ群:206520165
华声论坛 有你更精彩!!
 
章鱼2012

回复时间:2017-4-1 20:16

按此在新窗口浏览图片
按此在新窗口浏览图片
按此在新窗口浏览图片
按此在新窗口浏览图片





----------------------------------------------
华声论坛 影音帝国 官方QQ群

影视时空|音乐地带 QQ群:140288348 128111319 42933722
音乐快递QQ群:338549863 原声地带QQ群:344590352
高品质单曲QQ群:116060792 心情音乐QQ群:154659931
心情吟诵QQ群:190584521 音乐播放器QQ群:206520165
华声论坛 有你更精彩!!
 
章鱼2012

回复时间:2017-4-1 20:17

Exact Audio Copy V0.99 prebeta 4 from 23. January 2008

EAC 抓取日志文件从30. 三月 2017, 14:10

群星 / 华语老歌成名曲 CD1

使用驱动器 :SlimtypeDVD A DS8A4S Adapter: 0 ID: 0

读取模式 : 保护
使用精确流 : 是
废除音频缓冲 : 是
使用 C2 指针 : 否

读取偏移校正 : 6
读取 Lead-In 和 Lead-Out : 否
用静音填充抓取中丢失偏移的采样 : 是
去除首尾静音块 : 否
在 CRC 计算中使用了空样本 : 否
已用接口 : Win NT 及 2000 本地 Win32 接口

所用输出格式 : 内部 WAV 函数
样本格式 : 44.100 Hz;16 Bit;立体声


被抓轨 CD 的 TOC

音轨 | 开始 | 长度 | 起始扇区 | 结尾扇区
--------------------------------------------------
1 | 0:00.00 | 5:18.56 | 0 | 23905
2 | 5:18.56 | 4:12.14 | 23906 | 42819
3 | 9:30.70 | 4:48.73 | 42820 | 64492
4 | 14:19.68 | 4:53.29 | 64493 | 86496
5 | 19:13.22 | 6:07.20 | 86497 | 114041
6 | 25:20.42 | 4:39.00 | 114042 | 134966
7 | 29:59.42 | 4:07.33 | 134967 | 153524
8 | 34:07.00 | 3:52.46 | 153525 | 170970
9 | 37:59.46 | 4:39.09 | 170971 | 191904
10 | 42:38.55 | 5:01.36 | 191905 | 214515
11 | 47:40.16 | 4:48.31 | 214516 | 236146
12 | 52:28.47 | 4:12.53 | 236147 | 255099
13 | 56:41.25 | 4:32.65 | 255100 | 275564
14 | 61:14.15 | 4:45.13 | 275565 | 296952
15 | 65:59.28 | 4:19.65 | 296953 | 316442
16 | 70:19.18 | 4:56.41 | 316443 | 338683


范围状态及错误

已选择范围

文件名 E:\★音乐收藏\原抓\群星《华语老歌成名曲》精选特辑8CD\华语老歌成名曲CD1\华语老歌成名曲 CD1.wav

峰值电平 100.0 %
范围质量 100.0 %
复制 CRC 6352E6C1
复制成功

没有错误发生

状态报告结尾





----------------------------------------------
华声论坛 影音帝国 官方QQ群

影视时空|音乐地带 QQ群:140288348 128111319 42933722
音乐快递QQ群:338549863 原声地带QQ群:344590352
高品质单曲QQ群:116060792 心情音乐QQ群:154659931
心情吟诵QQ群:190584521 音乐播放器QQ群:206520165
华声论坛 有你更精彩!!
 
章鱼2012

回复时间:2017-4-1 20:17

免责声明:
本专辑仅供个人试听,版权归唱片公司所有,任何人不得用于商业用途!如果侵犯了你的权益请你留言指出、我如看见会在24小时内删除!





----------------------------------------------
华声论坛 影音帝国 官方QQ群

影视时空|音乐地带 QQ群:140288348 128111319 42933722
音乐快递QQ群:338549863 原声地带QQ群:344590352
高品质单曲QQ群:116060792 心情音乐QQ群:154659931
心情吟诵QQ群:190584521 音乐播放器QQ群:206520165
华声论坛 有你更精彩!!
 
li1962888

回复时间:2017-4-1 20:46
欣赏佳作,谢谢分享!

 
zysd88

回复时间:2017-4-1 21:23
欣赏佳作,谢谢分享!

 
gx5789zzj

回复时间:2017-4-1 21:24
感谢华声论坛提供大量金牌音乐

 
longshi5

回复时间:2017-4-1 21:33
谢谢版主的分享

 
zhangdoreen

回复时间:2017-4-1 21:40
谢谢分享

 
mikexbxb

回复时间:2017-4-1 22:38
谢谢分享,有你论坛更精彩

 
雨水煮茶

回复时间:2017-4-2 00:14
感谢分享

 
hekexing

回复时间:2017-4-2 00:22
谢谢分享

 
rzjhzs

回复时间:2017-4-2 08:39
经典好,谢谢分享

 
chechengjun

回复时间:2017-4-2 08:42
谢谢分享!

 
niuzhaoxin

回复时间:2017-4-2 09:32
谢谢楼主分享

 
bin00000

回复时间:2017-4-2 10:03
谢谢分享!




----------------------------------------------
音乐是生命的一部分,
 
余儿HIFI

回复时间:2017-4-2 11:18

 
阿弥托佛

回复时间:2017-4-2 11:20
谢谢分享!




----------------------------------------------

佑天佑地佑人 送福送禄送寿
看经典美图到三晋!



 
发新帖 新投票
 回帖
查看积分策略说明快速回复主题
你的用户名: 密码:   免费注册(只要30秒)


启用 Html 代码
使用个人签名
(请您文明上网理性发言!并遵守相关规定
   



Processed in 0.029828 s, 10 q - 无图精简版,sitemap,