发新帖  新投票  回帖 
237225个阅读者,1123条回复 | 打印 | 订阅 | 收藏
章鱼2012

发表时间:2017-4-18 22:20

车载CD《华语老歌成名曲》精选特辑CD2 [WAV/CUE/320k pp]   



章鱼2012 发表在 音乐地带 华声论坛 http://bbs.voc.com.cn/forum-77-1.html



下载

**** 本内容跟帖回复才可浏览 *****

本帖助威记录

淡淡戒痕 +1
太好啦!!!
2017-08-11 11:50:12
两重衣 +1
天啊,这还是帖子吗?简直是神作
2017-05-09 09:30:55
zhushiwei +1
能够在如此精彩的帖子留下自己的网名是多么骄傲的一件事啊
2017-05-08 20:53:56
ljq830 +1
牛!估计我这辈子再也见不到这样的帖子了
2017-05-06 16:06:27
高星星 +1
你的帖子可以上新闻联播了
2017-05-06 15:44:42
总计:魅力14点 助威10查看所有助威>>

本帖最近评分记录
爱格格   2017-4-20 14:00  金钱  +20   感谢章鱼版版原抓好资源~
爱格格   2017-4-20 14:00  魅力  +20   感谢章鱼版版原抓好资源~



----------------------------------------------
华声论坛 影音帝国 官方QQ群

影视时空|音乐地带 QQ群:140288348 128111319 42933722
音乐快递QQ群:338549863 原声地带QQ群:344590352
高品质单曲QQ群:116060792 心情音乐QQ群:154659931
心情吟诵QQ群:190584521 音乐播放器QQ群:206520165
华声论坛 有你更精彩!!
 
章鱼2012

回复时间:2017-4-18 22:20

按此在新窗口浏览图片

按此在新窗口浏览图片

按此在新窗口浏览图片





----------------------------------------------
华声论坛 影音帝国 官方QQ群

影视时空|音乐地带 QQ群:140288348 128111319 42933722
音乐快递QQ群:338549863 原声地带QQ群:344590352
高品质单曲QQ群:116060792 心情音乐QQ群:154659931
心情吟诵QQ群:190584521 音乐播放器QQ群:206520165
华声论坛 有你更精彩!!
 
章鱼2012

回复时间:2017-4-18 22:21

专辑名称:车载CD《华语老歌成名曲》精选特辑8CD
专辑艺人:群星
出版发行:武汉音像出版社
ISRC:CN-F05-07-328-00/AJ6
资源原抓:章鱼
专辑类型:WAV/CUE

专辑介绍:

浪游音乐的旅行者,自由如风,忠于自我的潇洒态度,温暖弹唱的动人心声。
岁月的点滴漂浮在音符里,永恒的旋律,永久的回味。

专辑曲目:



《华语老歌成名曲》DISC-2
01.爱你十分泪七分
02.只要你过得比我好
03.我的未来不是梦
04.浪人情歌
05.太傻
06.把悲伤留给自己
07.像我这样重感情的人
08.出界
09.牵手
10.棋子
11.女人花
12.伤心雨
13.他不爱我
14.让我欢喜让我忧
15.一场游戏一场梦
16.为什么你背着我爱别人





----------------------------------------------
华声论坛 影音帝国 官方QQ群

影视时空|音乐地带 QQ群:140288348 128111319 42933722
音乐快递QQ群:338549863 原声地带QQ群:344590352
高品质单曲QQ群:116060792 心情音乐QQ群:154659931
心情吟诵QQ群:190584521 音乐播放器QQ群:206520165
华声论坛 有你更精彩!!
 
章鱼2012

回复时间:2017-4-18 22:21

按此在新窗口浏览图片
按此在新窗口浏览图片
按此在新窗口浏览图片
按此在新窗口浏览图片





----------------------------------------------
华声论坛 影音帝国 官方QQ群

影视时空|音乐地带 QQ群:140288348 128111319 42933722
音乐快递QQ群:338549863 原声地带QQ群:344590352
高品质单曲QQ群:116060792 心情音乐QQ群:154659931
心情吟诵QQ群:190584521 音乐播放器QQ群:206520165
华声论坛 有你更精彩!!
 
章鱼2012

回复时间:2017-4-18 22:22

Exact Audio Copy V0.99 prebeta 4 from 23. January 2008

EAC 抓取日志文件从30. 三月 2017, 16:20

群星 / 华语老歌成名曲CD2

使用驱动器 :SlimtypeDVD A DS8A4S Adapter: 0 ID: 0

读取模式 : 保护
使用精确流 : 是
废除音频缓冲 : 是
使用 C2 指针 : 否

读取偏移校正 : 6
读取 Lead-In 和 Lead-Out : 否
用静音填充抓取中丢失偏移的采样 : 是
去除首尾静音块 : 否
在 CRC 计算中使用了空样本 : 否
已用接口 : Win NT 及 2000 本地 Win32 接口

所用输出格式 : 内部 WAV 函数
样本格式 : 44.100 Hz;16 Bit;立体声


被抓轨 CD 的 TOC

音轨 | 开始 | 长度 | 起始扇区 | 结尾扇区
--------------------------------------------------
1 | 0:00.00 | 4:17.15 | 0 | 19289
2 | 4:17.15 | 4:42.00 | 19290 | 40439
3 | 8:59.15 | 5:11.23 | 40440 | 63787
4 | 14:10.38 | 4:32.00 | 63788 | 84187
5 | 18:42.38 | 5:23.30 | 84188 | 108442
6 | 24:05.68 | 4:32.67 | 108443 | 128909
7 | 28:38.60 | 4:37.28 | 128910 | 149712
8 | 33:16.13 | 4:26.19 | 149713 | 169681
9 | 37:42.32 | 5:39.36 | 169682 | 195142
10 | 43:21.68 | 4:58.05 | 195143 | 217497
11 | 48:19.73 | 4:50.24 | 217498 | 239271
12 | 53:10.22 | 4:18.24 | 239272 | 258645
13 | 57:28.46 | 3:59.30 | 258646 | 276600
14 | 61:28.01 | 4:38.55 | 276601 | 297505
15 | 66:06.56 | 4:15.66 | 297506 | 316696
16 | 70:22.47 | 4:56.50 | 316697 | 338946


范围状态及错误

已选择范围

文件名 E:\★音乐收藏\原抓\群星《华语老歌成名曲》精选特辑8CD\华语老歌成名曲CD2.wav

峰值电平 100.0 %
范围质量 100.0 %
复制 CRC 70F4352F
复制成功

没有错误发生

状态报告结尾





----------------------------------------------
华声论坛 影音帝国 官方QQ群

影视时空|音乐地带 QQ群:140288348 128111319 42933722
音乐快递QQ群:338549863 原声地带QQ群:344590352
高品质单曲QQ群:116060792 心情音乐QQ群:154659931
心情吟诵QQ群:190584521 音乐播放器QQ群:206520165
华声论坛 有你更精彩!!
 
章鱼2012

回复时间:2017-4-18 22:22

免责声明:
本专辑仅供个人试听,版权归唱片公司所有,任何人不得用于商业用途!如果侵犯了你的权益请你留言指出、我如看见会在24小时内删除!





----------------------------------------------
华声论坛 影音帝国 官方QQ群

影视时空|音乐地带 QQ群:140288348 128111319 42933722
音乐快递QQ群:338549863 原声地带QQ群:344590352
高品质单曲QQ群:116060792 心情音乐QQ群:154659931
心情吟诵QQ群:190584521 音乐播放器QQ群:206520165
华声论坛 有你更精彩!!
 
笨笨梦幻

回复时间:2017-4-18 22:30

 
笨笨梦幻

回复时间:2017-4-18 22:33
好新颖的翻转列表播放器!谢谢老师分享!

 
AMOS很费解

回复时间:2017-4-18 23:20
感分享,支持赞赞赞!

 
ap928

回复时间:2017-4-18 23:27
谢谢分享

 
hao030330

回复时间:2017-4-19 02:19

 
6586222

回复时间:2017-4-19 06:46
谢谢分享

 
lzfxd

回复时间:2017-4-19 08:40
谢谢分享

 
study111

回复时间:2017-4-19 08:45
谢谢老师分享!

 
phua2008

回复时间:2017-4-19 09:24
谢谢楼主分享!

 
敬萱

回复时间:2017-4-19 09:34
谢谢分享

 
guoming1207

回复时间:2017-4-19 09:41
感分享,支持赞赞赞!

 
胶东半岛

回复时间:2017-4-19 09:48
谢谢分享。

 
njw007

回复时间:2017-4-19 10:01
期待继续精彩,谢谢!!

 
香水有毒ABC

回复时间:2017-4-19 10:04
经典的老歌.

 
发新帖 新投票
 回帖
查看积分策略说明快速回复主题
你的用户名: 密码:   免费注册(只要30秒)


启用 Html 代码
使用个人签名
(请您文明上网理性发言!并遵守相关规定
   



Processed in 0.028677 s, 10 q - 无图精简版,sitemap,