发新帖  新投票  回帖 
229704个阅读者,1536条回复 | 打印 | 订阅 | 收藏
章鱼2012

发表时间:2017-5-2 21:38

车载CD《华语老歌成名曲》精选特辑CD3[WAV/CUE/320k/pp]   



章鱼2012 发表在 音乐地带 华声论坛 http://bbs.voc.com.cn/forum-77-1.html



下载

**** 本内容跟帖回复才可浏览 *****

本帖助威记录

zengxd +1
比这精彩的帖子还有木有
2017-09-20 21:07:14
Eternally000 +1
感谢老天,感谢神仙姐姐让我看到这么好的帖子
2017-09-04 19:56:52
淡淡戒痕 +1
厉害了,我的歌
2017-08-11 11:34:12
姜姜姜 +1
你这个帖子连哑巴都能叫“绝!”
2017-08-07 16:14:06
sxs214 +1
你的帖子可以上新闻联播了
2017-06-27 22:27:42
总计:魅力26点 助威22查看所有助威>>

本帖最近评分记录
音乐我心   2017-5-3 10:51  金钱  +20   感谢章鱼版主的原抓分享,辛苦!
音乐我心   2017-5-3 10:51  魅力  +20   感谢章鱼版主的原抓分享,辛苦!



----------------------------------------------
华声论坛 影音帝国 官方QQ群

影视时空|音乐地带 QQ群:140288348 128111319 42933722
音乐快递QQ群:338549863 原声地带QQ群:344590352
高品质单曲QQ群:116060792 心情音乐QQ群:154659931
心情吟诵QQ群:190584521 音乐播放器QQ群:206520165
华声论坛 有你更精彩!!
 
章鱼2012

回复时间:2017-5-2 21:39

按此在新窗口浏览图片

按此在新窗口浏览图片

按此在新窗口浏览图片





----------------------------------------------
华声论坛 影音帝国 官方QQ群

影视时空|音乐地带 QQ群:140288348 128111319 42933722
音乐快递QQ群:338549863 原声地带QQ群:344590352
高品质单曲QQ群:116060792 心情音乐QQ群:154659931
心情吟诵QQ群:190584521 音乐播放器QQ群:206520165
华声论坛 有你更精彩!!
 
章鱼2012

回复时间:2017-5-2 21:39

专辑名称:车载CD《华语老歌成名曲》精选特辑8CD
专辑艺人:群星
出版发行:武汉音像出版社
ISRC:CN-F05-07-328-00/AJ6
资源原抓:章鱼
专辑类型:WAV/CUE

专辑介绍:

浪游音乐的旅行者,自由如风,忠于自我的潇洒态度,温暖弹唱的动人心声。
岁月的点滴漂浮在音符里,永恒的旋律,永久的回味。

专辑曲目:



《华语老歌成名曲》DISC-3
01.比我幸福
02.心如刀割
03.被动
04.缠绵
05.上海滩
06.风雨无阻
07.星星点灯
08.爱拼才会赢
09.酒干倘卖无
10.千千厥歌
11.梅花三弄
12.我只在乎你
13.风中有朵雨做的云
14.男人不该让女人流泪
15.其实你不懂我的心
16.不让我的眼泪陪我过夜
17.把根留住





----------------------------------------------
华声论坛 影音帝国 官方QQ群

影视时空|音乐地带 QQ群:140288348 128111319 42933722
音乐快递QQ群:338549863 原声地带QQ群:344590352
高品质单曲QQ群:116060792 心情音乐QQ群:154659931
心情吟诵QQ群:190584521 音乐播放器QQ群:206520165
华声论坛 有你更精彩!!
 
章鱼2012

回复时间:2017-5-2 21:40

按此在新窗口浏览图片
按此在新窗口浏览图片
按此在新窗口浏览图片
按此在新窗口浏览图片





----------------------------------------------
华声论坛 影音帝国 官方QQ群

影视时空|音乐地带 QQ群:140288348 128111319 42933722
音乐快递QQ群:338549863 原声地带QQ群:344590352
高品质单曲QQ群:116060792 心情音乐QQ群:154659931
心情吟诵QQ群:190584521 音乐播放器QQ群:206520165
华声论坛 有你更精彩!!
 
章鱼2012

回复时间:2017-5-2 21:40

Exact Audio Copy V0.99 prebeta 4 from 23. January 2008

EAC 抓取日志文件从30. 三月 2017, 17:08

群星 / 华语老歌成名曲

使用驱动器 :SlimtypeDVD A DS8A4S Adapter: 0 ID: 0

读取模式 : 保护
使用精确流 : 是
废除音频缓冲 : 是
使用 C2 指针 : 否

读取偏移校正 : 6
读取 Lead-In 和 Lead-Out : 否
用静音填充抓取中丢失偏移的采样 : 是
去除首尾静音块 : 否
在 CRC 计算中使用了空样本 : 否
已用接口 : Win NT 及 2000 本地 Win32 接口

所用输出格式 : 内部 WAV 函数
样本格式 : 44.100 Hz;16 Bit;立体声


被抓轨 CD 的 TOC

音轨 | 开始 | 长度 | 起始扇区 | 结尾扇区
--------------------------------------------------
1 | 0:00.00 | 4:27.68 | 0 | 20092
2 | 4:27.68 | 5:02.26 | 20093 | 42768
3 | 9:30.19 | 3:39.02 | 42769 | 59195
4 | 13:09.21 | 4:32.26 | 59196 | 79621
5 | 17:41.47 | 3:12.47 | 79622 | 94068
6 | 20:54.19 | 4:31.00 | 94069 | 114393
7 | 25:25.19 | 4:55.61 | 114394 | 136579
8 | 30:21.05 | 3:41.34 | 136580 | 153188
9 | 34:02.39 | 4:37.63 | 153189 | 174026
10 | 38:40.27 | 4:59.12 | 174027 | 196463
11 | 43:39.39 | 4:25.72 | 196464 | 216410
12 | 48:05.36 | 4:12.73 | 216411 | 235383
13 | 52:18.34 | 4:20.00 | 235384 | 254883
14 | 56:38.34 | 4:34.64 | 254884 | 275497
15 | 61:13.23 | 3:15.18 | 275498 | 290140
16 | 64:28.41 | 4:32.57 | 290141 | 310597
17 | 69:01.23 | 4:43.10 | 310598 | 331832


范围状态及错误

已选择范围

文件名 E:\★音乐收藏\原抓\群星《华语老歌成名曲》精选特辑8CD\华语老歌成名曲CD3\未知艺术家 - 华语老歌成名曲.wav

峰值电平 98.2 %
范围质量 99.9 %
复制 CRC 86C08146
复制成功

没有错误发生

状态报告结尾





----------------------------------------------
华声论坛 影音帝国 官方QQ群

影视时空|音乐地带 QQ群:140288348 128111319 42933722
音乐快递QQ群:338549863 原声地带QQ群:344590352
高品质单曲QQ群:116060792 心情音乐QQ群:154659931
心情吟诵QQ群:190584521 音乐播放器QQ群:206520165
华声论坛 有你更精彩!!
 
章鱼2012

回复时间:2017-5-2 21:41

免责声明:
本专辑仅供个人试听,版权归唱片公司所有,任何人不得用于商业用途!如果侵犯了你的权益请你留言指出、我如看见会在24小时内删除!





----------------------------------------------
华声论坛 影音帝国 官方QQ群

影视时空|音乐地带 QQ群:140288348 128111319 42933722
音乐快递QQ群:338549863 原声地带QQ群:344590352
高品质单曲QQ群:116060792 心情音乐QQ群:154659931
心情吟诵QQ群:190584521 音乐播放器QQ群:206520165
华声论坛 有你更精彩!!
 
☆花仙子☆

回复时间:2017-5-2 21:43
好漂亮的播放器




----------------------------------------------
让风慢慢吹,让鱼慢慢游,将来我们一起慢慢变老
 
cxlhz3987

回复时间:2017-5-2 22:39
感谢分享

 
AMOS很费解

回复时间:2017-5-2 22:45
感谢分享,支持赞赞赞!

 
menhuang

回复时间:2017-5-2 22:53

 
雨水煮茶

回复时间:2017-5-2 23:04
感谢分享

 
yjqz

回复时间:2017-5-3 06:48
谢谢楼主分享

 
cdc3818

回复时间:2017-5-3 06:54
感谢分享

 
sujin2960

回复时间:2017-5-3 08:03
谢谢楼主分享

 
qin5555

回复时间:2017-5-3 08:57
谢谢分享!

 
njw007

回复时间:2017-5-3 09:08
经典好歌好碟,非常感谢!!

 
摩尔99

回复时间:2017-5-3 09:14
好听,谢谢分享

 
wzk2014

回复时间:2017-5-3 10:40
谢谢分享

 
雪山剑

回复时间:2017-5-3 10:47
谢谢分享

 
阿弥托佛

回复时间:2017-5-3 12:11
谢谢分享!




----------------------------------------------

佑天佑地佑人 送福送禄送寿
看经典美图到三晋!



 
发新帖 新投票
 回帖
查看积分策略说明快速回复主题
你的用户名: 密码:   免费注册(只要30秒)


启用 Html 代码
使用个人签名
(请您文明上网理性发言!并遵守相关规定
   



Processed in 0.028705 s, 10 q - 无图精简版,sitemap,