发新帖  新投票  回帖 
499303个阅读者,2363条回复 | 打印 | 订阅 | 收藏
章鱼2012

发表时间:2017-5-12 20:46

车载CD《华语老歌成名曲》精选特辑CD4[WAV/CUE/320k/pp]   



章鱼2012 发表在 音乐地带 华声论坛 http://bbs.voc.com.cn/forum-77-1.html



下载

**** 本内容跟帖回复才可浏览 *****

本帖助威记录

车之家汽车用品 +1
给大哥 点赞
2017-11-19 17:58:03
海阔天空BQP +1
你的帖子可以上新闻联播了
2017-11-17 23:44:28
淡写的梅 +1
此帖让人眼前一亮,读完神清气爽,豁然开朗!腰不酸了,腿不痛了。真带劲!
2017-11-16 08:02:52
手捧阳光 +1
非常不错的音乐,感谢分享好资源
2017-11-05 14:12:46
MCTO_gg9r4t8t7 +1
牛!估计我这辈子再也见不到这样的帖子了
2017-11-05 01:28:35
总计:魅力49点 助威45查看所有助威>>

本帖最近评分记录
爱格格   2017-5-15 00:13  金钱  +20   经典老歌听不够的美~感谢章鱼版版原抓 ...
爱格格   2017-5-15 00:13  魅力  +20   经典老歌听不够的美~感谢章鱼版版原抓 ...



----------------------------------------------
华声论坛 影音帝国 官方QQ群

影视时空|音乐地带 QQ群:140288348 128111319 42933722
音乐快递QQ群:338549863 原声地带QQ群:344590352
高品质单曲QQ群:116060792 心情音乐QQ群:154659931
心情吟诵QQ群:190584521 音乐播放器QQ群:206520165
华声论坛 有你更精彩!!
 
章鱼2012

回复时间:2017-5-12 20:46

按此在新窗口浏览图片

按此在新窗口浏览图片

按此在新窗口浏览图片





----------------------------------------------
华声论坛 影音帝国 官方QQ群

影视时空|音乐地带 QQ群:140288348 128111319 42933722
音乐快递QQ群:338549863 原声地带QQ群:344590352
高品质单曲QQ群:116060792 心情音乐QQ群:154659931
心情吟诵QQ群:190584521 音乐播放器QQ群:206520165
华声论坛 有你更精彩!!
 
章鱼2012

回复时间:2017-5-12 20:47

按此在新窗口浏览图片

按此在新窗口浏览图片

按此在新窗口浏览图片

按此在新窗口浏览图片





----------------------------------------------
华声论坛 影音帝国 官方QQ群

影视时空|音乐地带 QQ群:140288348 128111319 42933722
音乐快递QQ群:338549863 原声地带QQ群:344590352
高品质单曲QQ群:116060792 心情音乐QQ群:154659931
心情吟诵QQ群:190584521 音乐播放器QQ群:206520165
华声论坛 有你更精彩!!
 
章鱼2012

回复时间:2017-5-12 20:47

专辑名称:车载CD《华语老歌成名曲》精选特辑8CD
专辑艺人:群星
出版发行:武汉音像出版社
ISRC:CN-F05-07-328-00/AJ6
资源原抓:章鱼
专辑类型:WAV/CUE

专辑介绍:

浪游音乐的旅行者,自由如风,忠于自我的潇洒态度,温暖弹唱的动人心声。
岁月的点滴漂浮在音符里,永恒的旋律,永久的回味。

专辑曲目:

《华语老歌成名曲》DISC-4
01.特别的爱给特别的你
02.我是不是该安静的走开
03.一生爱你千百回
04.我是一只小小鸟
05.好男人
06.分手
07.亲密爱人
08.盛夏的果实
09.我想有个家
10.味道
11.笔记本
12.你的眼神
13.新不了情
14.你怎么舍得我难过
15.那一场风花雪夜的事
16.是不是因为我不够温柔
17.是不是这样的夜晚你才会想起我





----------------------------------------------
华声论坛 影音帝国 官方QQ群

影视时空|音乐地带 QQ群:140288348 128111319 42933722
音乐快递QQ群:338549863 原声地带QQ群:344590352
高品质单曲QQ群:116060792 心情音乐QQ群:154659931
心情吟诵QQ群:190584521 音乐播放器QQ群:206520165
华声论坛 有你更精彩!!
 
章鱼2012

回复时间:2017-5-12 20:48

Exact Audio Copy V0.99 prebeta 4 from 23. January 2008

EAC 抓取日志文件从30. 三月 2017, 18:16

群星 / 华语老歌成名曲CD4

使用驱动器 :SlimtypeDVD A DS8A4S Adapter: 0 ID: 0

读取模式 : 保护
使用精确流 : 是
废除音频缓冲 : 是
使用 C2 指针 : 否

读取偏移校正 : 6
读取 Lead-In 和 Lead-Out : 否
用静音填充抓取中丢失偏移的采样 : 是
去除首尾静音块 : 否
在 CRC 计算中使用了空样本 : 否
已用接口 : Win NT 及 2000 本地 Win32 接口

所用输出格式 : 内部 WAV 函数
样本格式 : 44.100 Hz;16 Bit;立体声


被抓轨 CD 的 TOC

音轨 | 开始 | 长度 | 起始扇区 | 结尾扇区
--------------------------------------------------
1 | 0:00.00 | 4:56.51 | 0 | 22250
2 | 4:56.51 | 4:03.04 | 22251 | 40479
3 | 8:59.55 | 4:46.44 | 40480 | 61973
4 | 13:46.24 | 4:40.27 | 61974 | 83000
5 | 18:26.51 | 5:14.08 | 83001 | 106558
6 | 23:40.59 | 4:27.26 | 106559 | 126609
7 | 28:08.10 | 5:02.49 | 126610 | 149308
8 | 33:10.59 | 4:10.55 | 149309 | 168113
9 | 37:21.39 | 5:19.27 | 168114 | 192065
10 | 42:40.66 | 3:55.00 | 192066 | 209690
11 | 46:35.66 | 4:11.43 | 209691 | 228558
12 | 50:47.34 | 4:11.59 | 228559 | 247442
13 | 54:59.18 | 4:28.01 | 247443 | 267543
14 | 59:27.19 | 4:55.35 | 267544 | 289703
15 | 64:22.54 | 4:19.11 | 289704 | 309139
16 | 68:41.65 | 4:56.11 | 309140 | 331350
17 | 73:38.01 | 4:46.26 | 331351 | 352826


范围状态及错误

已选择范围

文件名 E:\★音乐收藏\原抓\群星《华语老歌成名曲》精选特辑8CD\群星 - 华语老歌成名曲CD4.wav

峰值电平 100.0 %
范围质量 99.9 %
复制 CRC F39DBC7B
复制成功

没有错误发生

状态报告结尾





----------------------------------------------
华声论坛 影音帝国 官方QQ群

影视时空|音乐地带 QQ群:140288348 128111319 42933722
音乐快递QQ群:338549863 原声地带QQ群:344590352
高品质单曲QQ群:116060792 心情音乐QQ群:154659931
心情吟诵QQ群:190584521 音乐播放器QQ群:206520165
华声论坛 有你更精彩!!
 
章鱼2012

回复时间:2017-5-12 20:48

免责声明:
本专辑仅供个人试听,版权归唱片公司所有,任何人不得用于商业用途!如果侵犯了你的权益请你留言指出、我如看见会在24小时内删除!





----------------------------------------------
华声论坛 影音帝国 官方QQ群

影视时空|音乐地带 QQ群:140288348 128111319 42933722
音乐快递QQ群:338549863 原声地带QQ群:344590352
高品质单曲QQ群:116060792 心情音乐QQ群:154659931
心情吟诵QQ群:190584521 音乐播放器QQ群:206520165
华声论坛 有你更精彩!!
 
☆花仙子☆

回复时间:2017-5-12 20:52
非常不错的音乐,感谢分享好资源




----------------------------------------------
让风慢慢吹,让鱼慢慢游,将来我们一起慢慢变老
 
AMOS很费解

回复时间:2017-5-12 20:52
问好,欣賞老师的精彩!

 
炫舞e时空

回复时间:2017-5-12 21:00
沙发欣赏原抓好碟!好听!师傅辛苦了!祝好!




----------------------------------------------
华声论坛 影音帝国 官方QQ群
影视时空|音乐地带 QQ群:140288348 128111319 42933722
音乐快递QQ群:338549863 原声地带QQ群:344590352
高品质单曲QQ群:116060792 心情音乐QQ群:154659931
心情吟诵QQ群:190584521 音乐播放器QQ群:206520165

华声论坛 有你更精彩!!
 
欣禾

回复时间:2017-5-12 21:08
音质真棒,太好听了,谢谢老师精彩分享!

 
wlh126

回复时间:2017-5-12 21:13
感谢楼主分享

 
yumingzhu622

回复时间:2017-5-12 21:46
这个就是怀旧的

 
石语者

回复时间:2017-5-12 21:47
收下第四张。

 
znml

回复时间:2017-5-12 22:10
谢谢分享!




----------------------------------------------
 
gaojianfei007

回复时间:2017-5-12 22:28
谢谢

 
菜虾hy

回复时间:2017-5-12 23:47
谢谢楼主分享第四张。

 
ap928

回复时间:2017-5-13 00:27
谢谢分享

 
爪子

回复时间:2017-5-13 03:45
谢谢分享

 
阿弥托佛

回复时间:2017-5-13 08:29
谢谢分享!




----------------------------------------------

佑天佑地佑人 送福送禄送寿
看经典美图到三晋!



 
999nnm

回复时间:2017-5-13 08:55
精典,谢谢分享。

 
发新帖 新投票
 回帖
查看积分策略说明快速回复主题
你的用户名: 密码:   免费注册(只要30秒)


启用 Html 代码
使用个人签名
(请您文明上网理性发言!并遵守相关规定
   



Processed in 0.017646 s, 10 q - 无图精简版,sitemap,