发新帖  新投票  回帖 
502098个阅读者,2423条回复 | 打印 | 订阅 | 收藏
章鱼2012

发表时间:2017-5-25 14:45

车载CD《华语老歌成名曲》精选特辑CD5 [WAV/CUE/320k/pp]   



章鱼2012 发表在 音乐地带 华声论坛 http://bbs.voc.com.cn/forum-77-1.html



下载

**** 本内容跟帖回复才可浏览 *****

本帖助威记录

sxs214 +1
看了你的帖子,今天饭钱又省了。
2017-12-10 18:21:11
宇花灵农业技术 +1
此帖让人眼前一亮,读完神清气爽,豁然开朗!腰不酸了,腿不痛了。真带劲!
2017-12-05 19:49:27
AFDWTUYD +1
好东西一定要顶
2017-11-21 17:30:35
飞扬2017 +1
比这精彩的帖子还有木有
2017-11-20 15:05:34
海阔天空BQP +1
牛!估计我这辈子再也见不到这样的帖子了
2017-11-18 00:03:21
总计:魅力32点 助威26查看所有助威>>

本帖最近评分记录
爱格格   2017-5-26 19:06  金钱  +20   感谢章鱼版版精彩原抓作品~
爱格格   2017-5-26 19:06  魅力  +20   感谢章鱼版版精彩原抓作品~



----------------------------------------------
华声论坛 影音帝国 官方QQ群

影视时空|音乐地带 QQ群:140288348 128111319 42933722
音乐快递QQ群:338549863 原声地带QQ群:344590352
高品质单曲QQ群:116060792 心情音乐QQ群:154659931
心情吟诵QQ群:190584521 音乐播放器QQ群:206520165
华声论坛 有你更精彩!!
 
章鱼2012

回复时间:2017-5-25 14:45

按此在新窗口浏览图片

按此在新窗口浏览图片

按此在新窗口浏览图片





----------------------------------------------
华声论坛 影音帝国 官方QQ群

影视时空|音乐地带 QQ群:140288348 128111319 42933722
音乐快递QQ群:338549863 原声地带QQ群:344590352
高品质单曲QQ群:116060792 心情音乐QQ群:154659931
心情吟诵QQ群:190584521 音乐播放器QQ群:206520165
华声论坛 有你更精彩!!
 
章鱼2012

回复时间:2017-5-25 14:46

专辑名称:车载CD《华语老歌成名曲》精选特辑8CD
专辑艺人:群星
出版发行:武汉音像出版社
ISRC:CN-F05-07-328-00/AJ6
资源原抓:章鱼
专辑类型:WAV/CUE

专辑介绍:

浪游音乐的旅行者,自由如风,忠于自我的潇洒态度,温暖弹唱的动人心声。
岁月的点滴漂浮在音符里,永恒的旋律,永久的回味。

专辑曲目:

《华语老歌成名曲》DISC-5
01.明天你是否依然爱我
02.有多少爱可以重来
03.最浪漫的事
04.一天一点爱恋
05.梦醒时分
06.为爱痴狂
07.忘了你忘了我
08.独角戏
09.值得
10.听海
11.回味
12.玻璃心
13.再回首
14.至少还有你
15.挪威森林
16.城里的月光





----------------------------------------------
华声论坛 影音帝国 官方QQ群

影视时空|音乐地带 QQ群:140288348 128111319 42933722
音乐快递QQ群:338549863 原声地带QQ群:344590352
高品质单曲QQ群:116060792 心情音乐QQ群:154659931
心情吟诵QQ群:190584521 音乐播放器QQ群:206520165
华声论坛 有你更精彩!!
 
章鱼2012

回复时间:2017-5-25 14:46

按此在新窗口浏览图片
按此在新窗口浏览图片
按此在新窗口浏览图片
按此在新窗口浏览图片





----------------------------------------------
华声论坛 影音帝国 官方QQ群

影视时空|音乐地带 QQ群:140288348 128111319 42933722
音乐快递QQ群:338549863 原声地带QQ群:344590352
高品质单曲QQ群:116060792 心情音乐QQ群:154659931
心情吟诵QQ群:190584521 音乐播放器QQ群:206520165
华声论坛 有你更精彩!!
 
章鱼2012

回复时间:2017-5-25 14:47

Exact Audio Copy V0.99 prebeta 4 from 23. January 2008

EAC 抓取日志文件从30. 三月 2017, 18:42

群星 / 华语老歌成名曲CD5

使用驱动器 :SlimtypeDVD A DS8A4S Adapter: 0 ID: 0

读取模式 : 保护
使用精确流 : 是
废除音频缓冲 : 是
使用 C2 指针 : 否

读取偏移校正 : 6
读取 Lead-In 和 Lead-Out : 否
用静音填充抓取中丢失偏移的采样 : 是
去除首尾静音块 : 否
在 CRC 计算中使用了空样本 : 否
已用接口 : Win NT 及 2000 本地 Win32 接口

所用输出格式 : 内部 WAV 函数
样本格式 : 44.100 Hz;16 Bit;立体声


被抓轨 CD 的 TOC

音轨 | 开始 | 长度 | 起始扇区 | 结尾扇区
--------------------------------------------------
1 | 0:00.00 | 4:19.49 | 0 | 19473
2 | 4:19.49 | 4:34.58 | 19474 | 40081
3 | 8:54.32 | 4:27.37 | 40082 | 60143
4 | 13:21.69 | 3:39.07 | 60144 | 76575
5 | 17:01.01 | 4:03.58 | 76576 | 94858
6 | 21:04.59 | 5:05.39 | 94859 | 117772
7 | 26:10.23 | 4:40.45 | 117773 | 138817
8 | 30:50.68 | 4:37.40 | 138818 | 159632
9 | 35:28.33 | 4:24.40 | 159633 | 179472
10 | 39:52.73 | 5:21.14 | 179473 | 203561
11 | 45:14.12 | 5:03.27 | 203562 | 226313
12 | 50:17.39 | 4:48.20 | 226314 | 247933
13 | 55:05.59 | 4:13.50 | 247934 | 266958
14 | 59:19.34 | 4:35.34 | 266959 | 287617
15 | 63:54.68 | 6:32.34 | 287618 | 317051
16 | 70:27.27 | 5:18.12 | 317052 | 340913


范围状态及错误

已选择范围

文件名 E:\★音乐收藏\原抓\群星《华语老歌成名曲》精选特辑8CD\华语老歌成名曲CD5.wav

峰值电平 100.0 %
范围质量 100.0 %
复制 CRC A82A8E17
复制成功

没有错误发生

状态报告结尾





----------------------------------------------
华声论坛 影音帝国 官方QQ群

影视时空|音乐地带 QQ群:140288348 128111319 42933722
音乐快递QQ群:338549863 原声地带QQ群:344590352
高品质单曲QQ群:116060792 心情音乐QQ群:154659931
心情吟诵QQ群:190584521 音乐播放器QQ群:206520165
华声论坛 有你更精彩!!
 
章鱼2012

回复时间:2017-5-25 14:47

免责声明:
本专辑仅供个人试听,版权归唱片公司所有,任何人不得用于商业用途!如果侵犯了你的权益请你留言指出、我如看见会在24小时内删除!





----------------------------------------------
华声论坛 影音帝国 官方QQ群

影视时空|音乐地带 QQ群:140288348 128111319 42933722
音乐快递QQ群:338549863 原声地带QQ群:344590352
高品质单曲QQ群:116060792 心情音乐QQ群:154659931
心情吟诵QQ群:190584521 音乐播放器QQ群:206520165
华声论坛 有你更精彩!!
 
study111

回复时间:2017-5-25 15:00
谢谢分享

 
日月星辰a

回复时间:2017-5-25 15:07
制作辛苦,赞个

 
雨水煮茶

回复时间:2017-5-25 15:11
感谢分享

 
zcw0686

回复时间:2017-5-25 15:32
期盼已久

 
清颖

回复时间:2017-5-25 15:34
谢谢分享,继续更新,谢谢 谢谢

 
亨利2015

回复时间:2017-5-25 15:37

 
小武5261

回复时间:2017-5-25 15:54
终于找到5了

 
万厦

回复时间:2017-5-25 16:05
谢谢分享,辛苦了!

 
sujin2960

回复时间:2017-5-25 16:35
谢谢分享

 
jdb88

回复时间:2017-5-25 16:57
期盼已久

 
AMOS很费解

回复时间:2017-5-25 17:17
感谢分享,支持赞赞赞!

 
天诚

回复时间:2017-5-25 18:01
谢谢分享,

 
zncg198

回复时间:2017-5-25 18:53
永恒的旋律,永久的回味。

 
北岩山人

回复时间:2017-5-25 19:23
还是老歌好听谢谢分享

 
发新帖 新投票
 回帖
查看积分策略说明快速回复主题
你的用户名: 密码:   免费注册(只要30秒)


启用 Html 代码
使用个人签名
(请您文明上网理性发言!并遵守相关规定
   



Processed in 0.028559 s, 10 q - 无图精简版,sitemap,