发新帖  新投票  回帖 
149785个阅读者,438条回复 | 打印 | 订阅 | 收藏
章鱼2012

发表时间:2017-5-28 21:47

祝论坛朋友们端午节愉快/华语老歌成名曲/精选特辑CD6[WAV/CUE/320k/pp]   



章鱼2012 发表在 音乐地带 华声论坛 http://bbs.voc.com.cn/forum-77-1.html



下载

**** 本内容跟帖回复才可浏览 *****

论坛有一些朋友希望本套专辑尽快出完、本人为此而努力着、希望大家不要着急!最后祝福大家端午节开心。。。

本帖助威记录

偷菜农夫 +1
感谢老天,感谢神仙姐姐让我看到这么好的帖子
2017-07-14 19:33:29
zhushiwei +1
牛!估计我这辈子再也见不到这样的帖子了
2017-07-09 12:27:07
打的就是你 +1
感谢老天,感谢神仙姐姐让我看到这么好的帖子
2017-07-08 03:06:37
DJwandou +1
你的帖子可以上新闻联播了
2017-06-28 19:57:18
炫舞e时空 +5
图美曲靓,耐听的调调,感谢师傅原抓分享及端午祝福!道一声迟到的祝福:遥祝夏日安好
2017-05-31 23:09:23
总计:魅力11点 助威7查看所有助威>>

本帖最近评分记录
爱格格   2017-5-29 00:22  金钱  +20   感谢章鱼版版原抓分享~粽子节快乐!
爱格格   2017-5-29 00:22  魅力  +20   感谢章鱼版版原抓分享~粽子节快乐!



----------------------------------------------
华声论坛 影音帝国 官方QQ群

影视时空|音乐地带 QQ群:140288348 128111319 42933722
音乐快递QQ群:338549863 原声地带QQ群:344590352
高品质单曲QQ群:116060792 心情音乐QQ群:154659931
心情吟诵QQ群:190584521 音乐播放器QQ群:206520165
华声论坛 有你更精彩!!
 
章鱼2012

回复时间:2017-5-28 21:48

按此在新窗口浏览图片

按此在新窗口浏览图片

按此在新窗口浏览图片





----------------------------------------------
华声论坛 影音帝国 官方QQ群

影视时空|音乐地带 QQ群:140288348 128111319 42933722
音乐快递QQ群:338549863 原声地带QQ群:344590352
高品质单曲QQ群:116060792 心情音乐QQ群:154659931
心情吟诵QQ群:190584521 音乐播放器QQ群:206520165
华声论坛 有你更精彩!!
 
章鱼2012

回复时间:2017-5-28 21:48

专辑名称:车载CD《华语老歌成名曲》精选特辑8CD
专辑艺人:群星
出版发行:武汉音像出版社
ISRC:CN-F05-07-328-00/AJ6
资源原抓:章鱼
专辑类型:WAV/CUE

专辑介绍:

浪游音乐的旅行者,自由如风,忠于自我的潇洒态度,温暖弹唱的动人心声。
岁月的点滴漂浮在音符里,永恒的旋律,永久的回味。

专辑曲目:


《华语老歌成名曲》DISC-6
01.忘情水
02.心碎了无痕
03.爱要怎么说出口
04.为情所困
05.过火
06.短发
07.哭砂
08.安妮
09.小薇
10.思念谁
11.心有独钟
12.凡人歌
13.橄榄树
14.我可以抱你吗
15.无情的雨无情的你
16.今夜你会不会来
17.我用自己的方式爱你





----------------------------------------------
华声论坛 影音帝国 官方QQ群

影视时空|音乐地带 QQ群:140288348 128111319 42933722
音乐快递QQ群:338549863 原声地带QQ群:344590352
高品质单曲QQ群:116060792 心情音乐QQ群:154659931
心情吟诵QQ群:190584521 音乐播放器QQ群:206520165
华声论坛 有你更精彩!!
 
章鱼2012

回复时间:2017-5-28 21:49

按此在新窗口浏览图片
按此在新窗口浏览图片
按此在新窗口浏览图片
按此在新窗口浏览图片





----------------------------------------------
华声论坛 影音帝国 官方QQ群

影视时空|音乐地带 QQ群:140288348 128111319 42933722
音乐快递QQ群:338549863 原声地带QQ群:344590352
高品质单曲QQ群:116060792 心情音乐QQ群:154659931
心情吟诵QQ群:190584521 音乐播放器QQ群:206520165
华声论坛 有你更精彩!!
 
章鱼2012

回复时间:2017-5-28 21:49

Exact Audio Copy V0.99 prebeta 4 from 23. January 2008

EAC 抓取日志文件从30. 三月 2017, 20:41

群星 / 华语老歌成名曲CD6

使用驱动器 :SlimtypeDVD A DS8A4S Adapter: 0 ID: 0

读取模式 : 保护
使用精确流 : 是
废除音频缓冲 : 是
使用 C2 指针 : 否

读取偏移校正 : 6
读取 Lead-In 和 Lead-Out : 否
用静音填充抓取中丢失偏移的采样 : 是
去除首尾静音块 : 否
在 CRC 计算中使用了空样本 : 否
已用接口 : Win NT 及 2000 本地 Win32 接口

所用输出格式 : 内部 WAV 函数
样本格式 : 44.100 Hz;16 Bit;立体声


被抓轨 CD 的 TOC

音轨 | 开始 | 长度 | 起始扇区 | 结尾扇区
--------------------------------------------------
1 | 0:00.00 | 4:23.29 | 0 | 19753
2 | 4:23.29 | 4:15.03 | 19754 | 38881
3 | 8:38.32 | 4:40.44 | 38882 | 59925
4 | 13:19.01 | 4:57.48 | 59926 | 82248
5 | 18:16.49 | 5:03.03 | 82249 | 104976
6 | 23:19.52 | 4:40.15 | 104977 | 125991
7 | 27:59.67 | 5:06.70 | 125992 | 149011
8 | 33:06.62 | 4:11.57 | 149012 | 167893
9 | 37:18.44 | 3:15.52 | 167894 | 182570
10 | 40:34.21 | 4:04.44 | 182571 | 200914
11 | 44:38.65 | 4:33.50 | 200915 | 221439
12 | 49:12.40 | 3:49.28 | 221440 | 238642
13 | 53:01.68 | 3:43.01 | 238643 | 255368
14 | 56:44.69 | 4:52.11 | 255369 | 277279
15 | 61:37.05 | 4:06.44 | 277280 | 295773
16 | 65:43.49 | 4:11.56 | 295774 | 314654
17 | 69:55.30 | 4:50.73 | 314655 | 336477


范围状态及错误

已选择范围

文件名 E:\★音乐收藏\原抓\群星《华语老歌成名曲》精选特辑8CD\华语老歌成名曲CD6.wav

峰值电平 93.1 %
范围质量 100.0 %
复制 CRC DB74A781
复制成功

没有错误发生

状态报告结尾





----------------------------------------------
华声论坛 影音帝国 官方QQ群

影视时空|音乐地带 QQ群:140288348 128111319 42933722
音乐快递QQ群:338549863 原声地带QQ群:344590352
高品质单曲QQ群:116060792 心情音乐QQ群:154659931
心情吟诵QQ群:190584521 音乐播放器QQ群:206520165
华声论坛 有你更精彩!!
 
章鱼2012

回复时间:2017-5-28 21:49

免责声明:
本专辑仅供个人试听,版权归唱片公司所有,任何人不得用于商业用途!如果侵犯了你的权益请你留言指出、我如看见会在24小时内删除!





----------------------------------------------
华声论坛 影音帝国 官方QQ群

影视时空|音乐地带 QQ群:140288348 128111319 42933722
音乐快递QQ群:338549863 原声地带QQ群:344590352
高品质单曲QQ群:116060792 心情音乐QQ群:154659931
心情吟诵QQ群:190584521 音乐播放器QQ群:206520165
华声论坛 有你更精彩!!
 
yang5277229

回复时间:2017-5-28 21:57
端午节快乐

 
咗洱

回复时间:2017-5-28 22:03
好人一生平安!谢谢

 
典狱长

回复时间:2017-5-28 22:10
平哥老大 好制作啊

 
典狱长

回复时间:2017-5-28 22:11
祝平哥老大端午节快乐

 
日月星辰a

回复时间:2017-5-28 23:12
祝平哥老大端午节快乐好听呢

 
爱格格

回复时间:2017-5-29 00:27
好好听的“小薇”~~~~似乎这首歌曲怎么听都耐听~~

格格感谢章鱼版版一直以来为帝国无私原抓分享好资源~~祝福章鱼版版~祝福论坛朋友们粽子节快乐哦~~~开心过小长假!




----------------------------------------------
一起看花开花落,一起看沧海桑田。

华声论坛 影音帝国 官方QQ群
影视时空|音乐地带 QQ群:140288348 128111319 42933722
音乐快递QQ群:338549863 原声地带QQ群:344590352
高品质单曲QQ群:116060792 心情音乐QQ群:154659931
心情吟诵QQ群:190584521 音乐播放器QQ群:206520165 123212189

华声论坛 有你更精彩!!
 
xukunfengyou

回复时间:2017-5-29 00:31
谢谢楼主节日快乐

 
cfs70

回复时间:2017-5-29 04:50
好资源,谢谢分享

 
allcome

回复时间:2017-5-29 06:13
喜欢这些老歌曲,真好听,谢谢分享

 
6586222

回复时间:2017-5-29 06:42
谢谢分享

 
秋天2019

回复时间:2017-5-29 07:15
谢谢章鱼哥实在是太喜欢这套专辑了出差坐长途火车必备歌曲

 
laochenw

回复时间:2017-5-29 07:32
端午快乐 谢谢分享

 
dongzhixin888

回复时间:2017-5-29 08:45
谢谢分享

 
zcw0686

回复时间:2017-5-29 08:53
再一次等到你

 
发新帖 新投票
 回帖
查看积分策略说明快速回复主题
你的用户名: 密码:   免费注册(只要30秒)


启用 Html 代码
使用个人签名
(请您文明上网理性发言!并遵守相关规定
   



Processed in 0.034072 s, 10 q - 无图精简版,sitemap,