发新帖  新投票  回帖 
120729个阅读者,733条回复 | 打印 | 订阅 | 收藏
章鱼2012

发表时间:2017-6-10 22:35

车载CD《华语老歌成名曲》精选特辑CD7[WAV/CUE/320k/pp]   



章鱼2012 发表在 音乐地带 华声论坛 http://bbs.voc.com.cn/forum-77-1.html



下载

**** 本内容跟帖回复才可浏览 *****

本帖助威记录

小美女007 +1
比这精彩的帖子还有木有
2017-09-26 14:46:16
乐天派吗 +1
比这精彩的帖子还有木有
2017-09-17 11:44:45
ctlxh +1
牛!估计我这辈子再也见不到这样的帖子了
2017-08-20 11:16:26
li1962888 +3
比这精彩的帖子还有木有
2017-07-05 18:26:03
jinxa +1
你的帖子可以上新闻联播了
2017-06-29 22:23:28
总计:魅力13点 助威7查看所有助威>>



----------------------------------------------
华声论坛 影音帝国 官方QQ群

影视时空|音乐地带 QQ群:140288348 128111319 42933722
音乐快递QQ群:338549863 原声地带QQ群:344590352
高品质单曲QQ群:116060792 心情音乐QQ群:154659931
心情吟诵QQ群:190584521 音乐播放器QQ群:206520165
华声论坛 有你更精彩!!
 
章鱼2012

回复时间:2017-6-10 22:35

按此在新窗口浏览图片

按此在新窗口浏览图片

按此在新窗口浏览图片





----------------------------------------------
华声论坛 影音帝国 官方QQ群

影视时空|音乐地带 QQ群:140288348 128111319 42933722
音乐快递QQ群:338549863 原声地带QQ群:344590352
高品质单曲QQ群:116060792 心情音乐QQ群:154659931
心情吟诵QQ群:190584521 音乐播放器QQ群:206520165
华声论坛 有你更精彩!!
 
章鱼2012

回复时间:2017-6-10 22:36

专辑名称:车载CD《华语老歌成名曲》精选特辑8CD
专辑艺人:群星
出版发行:武汉音像出版社
ISRC:CN-F05-07-328-00/AJ6
资源原抓:章鱼
专辑类型:WAV/CUE

专辑介绍:

浪游音乐的旅行者,自由如风,忠于自我的潇洒态度,温暖弹唱的动人心声。
岁月的点滴漂浮在音符里,永恒的旋律,永久的回味。

专辑曲目:


《华语老歌成名曲》DISC-7
01.相思
02.梦里水乡
03.山不转水转
04.冰糖葫芦
05.留什么给你
06.真的好想你
07.知心爱人
08.牵挂你的人是我
09.执着
10.弯弯的月亮
11.千古绝唱
12.祝你平安
13.花好月圆
14.涛声依旧
15.九九女儿红
16.甘心情愿
17.摇太阳





----------------------------------------------
华声论坛 影音帝国 官方QQ群

影视时空|音乐地带 QQ群:140288348 128111319 42933722
音乐快递QQ群:338549863 原声地带QQ群:344590352
高品质单曲QQ群:116060792 心情音乐QQ群:154659931
心情吟诵QQ群:190584521 音乐播放器QQ群:206520165
华声论坛 有你更精彩!!
 
章鱼2012

回复时间:2017-6-10 22:36

按此在新窗口浏览图片
按此在新窗口浏览图片
按此在新窗口浏览图片
按此在新窗口浏览图片





----------------------------------------------
华声论坛 影音帝国 官方QQ群

影视时空|音乐地带 QQ群:140288348 128111319 42933722
音乐快递QQ群:338549863 原声地带QQ群:344590352
高品质单曲QQ群:116060792 心情音乐QQ群:154659931
心情吟诵QQ群:190584521 音乐播放器QQ群:206520165
华声论坛 有你更精彩!!
 
章鱼2012

回复时间:2017-6-10 22:37

Exact Audio Copy V0.99 prebeta 4 from 23. January 2008

EAC 抓取日志文件从30. 三月 2017, 21:15

群星 / 华语老歌成名曲CD7

使用驱动器 :SlimtypeDVD A DS8A4S Adapter: 0 ID: 0

读取模式 : 保护
使用精确流 : 是
废除音频缓冲 : 是
使用 C2 指针 : 否

读取偏移校正 : 6
读取 Lead-In 和 Lead-Out : 否
用静音填充抓取中丢失偏移的采样 : 是
去除首尾静音块 : 否
在 CRC 计算中使用了空样本 : 否
已用接口 : Win NT 及 2000 本地 Win32 接口

所用输出格式 : 内部 WAV 函数
样本格式 : 44.100 Hz;16 Bit;立体声


被抓轨 CD 的 TOC

音轨 | 开始 | 长度 | 起始扇区 | 结尾扇区
--------------------------------------------------
1 | 0:00.00 | 4:31.12 | 0 | 20336
2 | 4:31.12 | 4:58.10 | 20337 | 42696
3 | 9:29.22 | 3:21.68 | 42697 | 57839
4 | 12:51.15 | 4:14.20 | 57840 | 76909
5 | 17:05.35 | 3:54.15 | 76910 | 94474
6 | 20:59.50 | 4:14.40 | 94475 | 113564
7 | 25:14.15 | 5:20.57 | 113565 | 137621
8 | 30:34.72 | 4:06.19 | 137622 | 156090
9 | 34:41.16 | 3:51.07 | 156091 | 173422
10 | 38:32.23 | 5:01.29 | 173423 | 196026
11 | 43:33.52 | 6:00.00 | 196027 | 223026
12 | 49:33.52 | 4:04.40 | 223027 | 241366
13 | 53:38.17 | 3:57.13 | 241367 | 259154
14 | 57:35.30 | 4:31.34 | 259155 | 279513
15 | 62:06.64 | 4:40.00 | 279514 | 300513
16 | 66:46.64 | 4:59.60 | 300514 | 322998
17 | 71:46.49 | 3:49.22 | 322999 | 340195


范围状态及错误

已选择范围

文件名 E:\★音乐收藏\原抓\群星《华语老歌成名曲》精选特辑8CD\华语老歌成名曲CD7.wav

峰值电平 100.0 %
范围质量 100.0 %
复制 CRC 97D6E96C
复制成功

没有错误发生

状态报告结尾





----------------------------------------------
华声论坛 影音帝国 官方QQ群

影视时空|音乐地带 QQ群:140288348 128111319 42933722
音乐快递QQ群:338549863 原声地带QQ群:344590352
高品质单曲QQ群:116060792 心情音乐QQ群:154659931
心情吟诵QQ群:190584521 音乐播放器QQ群:206520165
华声论坛 有你更精彩!!
 
章鱼2012

回复时间:2017-6-10 22:37

免责声明:
本专辑仅供个人试听,版权归唱片公司所有,任何人不得用于商业用途!如果侵犯了你的权益请你留言指出、我如看见会在24小时内删除!





----------------------------------------------
华声论坛 影音帝国 官方QQ群

影视时空|音乐地带 QQ群:140288348 128111319 42933722
音乐快递QQ群:338549863 原声地带QQ群:344590352
高品质单曲QQ群:116060792 心情音乐QQ群:154659931
心情吟诵QQ群:190584521 音乐播放器QQ群:206520165
华声论坛 有你更精彩!!
 
ldxgyxy

回复时间:2017-6-10 22:54
经典的回忆,经典的幸福!作者声明:本帖为本人原创,未经本人和华声论坛许可,不得转载

 
_天天开心_

回复时间:2017-6-10 23:06
多谢楼主共享,在等第八张!

 
xukunfengyou

回复时间:2017-6-11 00:45
个个经典,谢谢楼主

 
健康大使

回复时间:2017-6-11 07:02
多谢楼主共享

 
zhph440805

回复时间:2017-6-11 07:39
感谢分享!

 
胶东半岛

回复时间:2017-6-11 07:43
多谢楼主共享

 
leonnxw

回复时间:2017-6-11 07:51
多谢楼主共享,在等第八张!




----------------------------------------------
牛嚼牡丹,Good!
 
longshi5

回复时间:2017-6-11 08:34
谢谢版主的分享

 
开心快乐人

回复时间:2017-6-11 08:45
个个经典,谢谢楼主

 
劳心

回复时间:2017-6-11 09:51
感谢分享!

 
lzfxd

回复时间:2017-6-11 09:55
多谢楼主共享!

 
wzk2014

回复时间:2017-6-11 09:58
谢谢分享

 
bin00000

回复时间:2017-6-11 10:09
谢谢分享




----------------------------------------------
音乐是生命的一部分,
 
雨水煮茶

回复时间:2017-6-11 10:31
感谢分享

 
发新帖 新投票
 回帖
查看积分策略说明快速回复主题
你的用户名: 密码:   免费注册(只要30秒)


启用 Html 代码
使用个人签名
(请您文明上网理性发言!并遵守相关规定
   



Processed in 0.021865 s, 9 q - 无图精简版,sitemap,