发新帖  新投票  回帖 
67105个阅读者,345条回复 | 打印 | 订阅 | 收藏
梦回云阳

发表时间:2017-6-11 16:30

群星·欧美金唱盘CDE【WAV+CUE/百度】   



梦回云阳 发表在 音乐地带 华声论坛 http://bbs.voc.com.cn/forum-77-1.html










下载测试资源
**** 本内容跟帖回复才可浏览 *****


本帖助威记录

li1962888 +3
比这精彩的帖子还有木有
2017-07-04 19:44:36
hslt5427 +1
能够在如此精彩的帖子留下自己的网名是多么骄傲的一件事啊
2017-07-04 13:31:23
总计:魅力4点 助威2查看所有助威>>



----------------------------------------------
友情提醒:下载测试资源存放于免费网盘,不保证资源的长期有效;若有任何一方主张版权,请各管管或版版直接删除本帖,不用任何形式的通知我本人,谢谢。

华声论坛 影音帝国 官方QQ群
影视时空|音乐地带 QQ群:140288348 128111319 42933722
音乐快递QQ群:338549863 原声地带QQ群:344590352
高品质单曲QQ群:116060792 心情音乐QQ群:154659931
心情吟诵QQ群:190584521 音乐播放器QQ群:206520165
 
梦回云阳

回复时间:2017-6-11 16:31

专辑名称:欧美金唱盘CDE
专辑艺人:群星
出版公司:广州新时代像音公司
ISRC编号:CN-F21-08-326-00/A.J6
资源格式:WAV


专辑介绍:
欧美经典英文老歌曲合集,熟悉又悠扬的欧美好歌经典重理,盘点历年经典欧美曲目歌曲。
汲取不可思议的音乐力量,打开刻骨铭心的昔日往事,深情的歌声把我们带进了那个充满真实情感的年代;
怀旧的歌声所带来的快东与哀愁,缥缈迷离,足以让我陷入如梦如幻的情调中......

专辑曲目:
01.最后一次想你
02.失去的爱
03.这不是告别
04.爱着你的爱
05.只因有你
06.在这里停留
07.我爱着你
08.漂亮男孩
09.在我肩膀上哭泣
10.更靠近些
11.在我受伤的心底里
12.当我需要你的时候
13.无尽的爱
14.告别时刻
15.不要说再见
16.无言悲伤





----------------------------------------------
友情提醒:下载测试资源存放于免费网盘,不保证资源的长期有效;若有任何一方主张版权,请各管管或版版直接删除本帖,不用任何形式的通知我本人,谢谢。

华声论坛 影音帝国 官方QQ群
影视时空|音乐地带 QQ群:140288348 128111319 42933722
音乐快递QQ群:338549863 原声地带QQ群:344590352
高品质单曲QQ群:116060792 心情音乐QQ群:154659931
心情吟诵QQ群:190584521 音乐播放器QQ群:206520165
 
梦回云阳

回复时间:2017-6-11 16:32

按此在新窗口浏览图片





----------------------------------------------
友情提醒:下载测试资源存放于免费网盘,不保证资源的长期有效;若有任何一方主张版权,请各管管或版版直接删除本帖,不用任何形式的通知我本人,谢谢。

华声论坛 影音帝国 官方QQ群
影视时空|音乐地带 QQ群:140288348 128111319 42933722
音乐快递QQ群:338549863 原声地带QQ群:344590352
高品质单曲QQ群:116060792 心情音乐QQ群:154659931
心情吟诵QQ群:190584521 音乐播放器QQ群:206520165
 
梦回云阳

回复时间:2017-6-11 16:35

按此在新窗口浏览图片





----------------------------------------------
友情提醒:下载测试资源存放于免费网盘,不保证资源的长期有效;若有任何一方主张版权,请各管管或版版直接删除本帖,不用任何形式的通知我本人,谢谢。

华声论坛 影音帝国 官方QQ群
影视时空|音乐地带 QQ群:140288348 128111319 42933722
音乐快递QQ群:338549863 原声地带QQ群:344590352
高品质单曲QQ群:116060792 心情音乐QQ群:154659931
心情吟诵QQ群:190584521 音乐播放器QQ群:206520165
 
梦回云阳

回复时间:2017-6-11 16:35

按此在新窗口浏览图片





----------------------------------------------
友情提醒:下载测试资源存放于免费网盘,不保证资源的长期有效;若有任何一方主张版权,请各管管或版版直接删除本帖,不用任何形式的通知我本人,谢谢。

华声论坛 影音帝国 官方QQ群
影视时空|音乐地带 QQ群:140288348 128111319 42933722
音乐快递QQ群:338549863 原声地带QQ群:344590352
高品质单曲QQ群:116060792 心情音乐QQ群:154659931
心情吟诵QQ群:190584521 音乐播放器QQ群:206520165
 
梦回云阳

回复时间:2017-6-11 16:37

抓轨前检测


按此在新窗口浏览图片


按此在新窗口浏览图片


按此在新窗口浏览图片





----------------------------------------------
友情提醒:下载测试资源存放于免费网盘,不保证资源的长期有效;若有任何一方主张版权,请各管管或版版直接删除本帖,不用任何形式的通知我本人,谢谢。

华声论坛 影音帝国 官方QQ群
影视时空|音乐地带 QQ群:140288348 128111319 42933722
音乐快递QQ群:338549863 原声地带QQ群:344590352
高品质单曲QQ群:116060792 心情音乐QQ群:154659931
心情吟诵QQ群:190584521 音乐播放器QQ群:206520165
 
梦回云阳

回复时间:2017-6-11 16:38
EAC 抓取日志文件


Exact Audio Copy V0.99 prebeta 4 from 23. January 2008

EAC 抓取日志文件从11. 一月 2017, 10:39

群星 / 欧美金唱盘CDE

使用驱动器 :MATSHITADVD-RAM UJ8E0 Adapter: 0 ID: 0

读取模式 : 保护
使用精确流 : 是
废除音频缓冲 : 否
使用 C2 指针 : 否

组合读/写偏移校正 : 0
读取 Lead-In 和 Lead-Out : 否
用静音填充抓取中丢失偏移的采样 : 是
去除首尾静音块 : 否
在 CRC 计算中使用了空样本 : 否
已用接口 : Win NT 及 2000 本地 Win32 接口

所用输出格式 : 内部 WAV 函数
样本格式 : 44.100 Hz;16 Bit;立体声


被抓轨 CD 的 TOC

音轨 | 开始 | 长度 | 起始扇区 | 结尾扇区
--------------------------------------------------
1 | 0:00.00 | 3:49.26 | 0 | 17200
2 | 3:49.26 | 4:47.56 | 17201 | 38781
3 | 8:37.07 | 4:34.32 | 38782 | 59363
4 | 13:11.39 | 4:01.19 | 59364 | 77457
5 | 17:12.58 | 3:43.39 | 77458 | 94221
6 | 20:56.22 | 4:00.20 | 94222 | 112241
7 | 24:56.42 | 5:17.65 | 112242 | 136081
8 | 30:14.32 | 4:38.15 | 136082 | 156946
9 | 34:52.47 | 4:01.32 | 156947 | 175053
10 | 38:54.04 | 4:35.23 | 175054 | 195701
11 | 43:29.27 | 5:12.21 | 195702 | 219122
12 | 48:41.48 | 4:12.45 | 219123 | 238067
13 | 52:54.18 | 4:23.58 | 238068 | 257850
14 | 57:18.01 | 3:57.44 | 257851 | 275669
15 | 61:15.45 | 3:11.00 | 275670 | 289994
16 | 64:26.45 | 4:21.69 | 289995 | 309638


范围状态及错误

已选择范围

文件名 F:\音频抓轨\群星 - 欧美金唱盘CDE.wav

峰值电平 100.0 %
范围质量 99.9 %
复制 CRC 1A766804
复制成功

没有错误发生

状态报告结尾




----------------------------------------------
友情提醒:下载测试资源存放于免费网盘,不保证资源的长期有效;若有任何一方主张版权,请各管管或版版直接删除本帖,不用任何形式的通知我本人,谢谢。

华声论坛 影音帝国 官方QQ群
影视时空|音乐地带 QQ群:140288348 128111319 42933722
音乐快递QQ群:338549863 原声地带QQ群:344590352
高品质单曲QQ群:116060792 心情音乐QQ群:154659931
心情吟诵QQ群:190584521 音乐播放器QQ群:206520165
 
梦回云阳

回复时间:2017-6-11 16:38
所有音乐仅供测试及试听,音乐版权归原唱片公司所有,任何人不得用于商业用途!




----------------------------------------------
友情提醒:下载测试资源存放于免费网盘,不保证资源的长期有效;若有任何一方主张版权,请各管管或版版直接删除本帖,不用任何形式的通知我本人,谢谢。

华声论坛 影音帝国 官方QQ群
影视时空|音乐地带 QQ群:140288348 128111319 42933722
音乐快递QQ群:338549863 原声地带QQ群:344590352
高品质单曲QQ群:116060792 心情音乐QQ群:154659931
心情吟诵QQ群:190584521 音乐播放器QQ群:206520165
 
yycn21

回复时间:2017-6-12 11:07
谢谢分享

 
hdw806

回复时间:2017-6-12 11:22
谢谢分享

 
弓翁

回复时间:2017-6-12 11:29
谢谢分享!

 
阿弥托佛

回复时间:2017-6-12 11:51
谢谢分享!




----------------------------------------------

佑天佑地佑人 送福送禄送寿
看经典美图到三晋!



 
linhailv

回复时间:2017-6-12 17:33
谢谢楼主分享经典欧美流行音乐。。。。。。。。。。。。

 
何人2017

回复时间:2017-6-12 18:16
谢谢楼主

 
容县彬彬

回复时间:2017-6-12 19:57
送福送禄送寿

 
qzcfwangyy

回复时间:2017-6-12 20:09

 
longshi5

回复时间:2017-6-12 20:49
等你等的我心痛,谢谢版主的分享。

 
sdykevin2017

回复时间:2017-6-12 21:04
先下载收藏了再说,谢谢

 
qzcfwangyy

回复时间:2017-6-12 21:50

 
东行千里车马尘

回复时间:2017-6-12 22:36
感谢分享

 
发新帖 新投票
 回帖
查看积分策略说明快速回复主题
你的用户名: 密码:   免费注册(只要30秒)


启用 Html 代码
使用个人签名
(请您文明上网理性发言!并遵守相关规定
   



Processed in 0.028164 s, 9 q - 无图精简版,sitemap,