发新帖  新投票  回帖 
107966个阅读者,635条回复 | 打印 | 订阅 | 收藏
章鱼2012

发表时间:2017-6-24 20:21

车载CD《华语老歌成名曲》精选特辑CD8 [WAV/CUE/320k/pp]   



章鱼2012 发表在 音乐地带 华声论坛 http://bbs.voc.com.cn/forum-77-1.html


本帖助威记录

L李李坪源SC +1
这是帖子?我揉揉眼
2017-10-08 11:34:31
tao1972 +1
比这精彩的帖子还有木有
2017-09-01 00:41:39
一只影 +1
能够在如此精彩的帖子留下自己的网名是多么骄傲的一件事啊
2017-07-14 21:47:32
典狱长 +1
感谢老天,感谢神仙姐姐让我看到这么好的帖子
2017-06-24 20:51:22
总计:魅力4点 助威4查看所有助威>>



----------------------------------------------
华声论坛 影音帝国 官方QQ群

影视时空|音乐地带 QQ群:140288348 128111319 42933722
音乐快递QQ群:338549863 原声地带QQ群:344590352
高品质单曲QQ群:116060792 心情音乐QQ群:154659931
心情吟诵QQ群:190584521 音乐播放器QQ群:206520165
华声论坛 有你更精彩!!
 
章鱼2012

回复时间:2017-6-24 20:22

按此在新窗口浏览图片

按此在新窗口浏览图片

按此在新窗口浏览图片





----------------------------------------------
华声论坛 影音帝国 官方QQ群

影视时空|音乐地带 QQ群:140288348 128111319 42933722
音乐快递QQ群:338549863 原声地带QQ群:344590352
高品质单曲QQ群:116060792 心情音乐QQ群:154659931
心情吟诵QQ群:190584521 音乐播放器QQ群:206520165
华声论坛 有你更精彩!!
 
章鱼2012

回复时间:2017-6-24 20:22

专辑名称:车载CD《华语老歌成名曲》精选特辑8CD
专辑艺人:群星
出版发行:武汉音像出版社
ISRC:CN-F05-07-328-00/AJ6
资源原抓:章鱼
专辑类型:WAV/CUE

专辑介绍:

浪游音乐的旅行者,自由如风,忠于自我的潇洒态度,温暖弹唱的动人心声。
岁月的点滴漂浮在音符里,永恒的旋律,永久的回味。

专辑曲目:


《华语老歌成名曲》DISC-8
01.晚秋
02.雾里看花
03.我不想说
04.枕着你的名字入眠
05.你的柔情我永远不懂
06.同桌的你
07.中华民谣
08.久别的人
09.窗外
10.阿莲
11.杜十娘
12.月满西楼
13.我的眼里只有你
14.九妹
15.放弃我是你的错
16.愚公移山





----------------------------------------------
华声论坛 影音帝国 官方QQ群

影视时空|音乐地带 QQ群:140288348 128111319 42933722
音乐快递QQ群:338549863 原声地带QQ群:344590352
高品质单曲QQ群:116060792 心情音乐QQ群:154659931
心情吟诵QQ群:190584521 音乐播放器QQ群:206520165
华声论坛 有你更精彩!!
 
章鱼2012

回复时间:2017-6-24 20:23

按此在新窗口浏览图片
按此在新窗口浏览图片
按此在新窗口浏览图片
按此在新窗口浏览图片





----------------------------------------------
华声论坛 影音帝国 官方QQ群

影视时空|音乐地带 QQ群:140288348 128111319 42933722
音乐快递QQ群:338549863 原声地带QQ群:344590352
高品质单曲QQ群:116060792 心情音乐QQ群:154659931
心情吟诵QQ群:190584521 音乐播放器QQ群:206520165
华声论坛 有你更精彩!!
 
章鱼2012

回复时间:2017-6-24 20:23

Exact Audio Copy V0.99 prebeta 4 from 23. January 2008

EAC 抓取日志文件从30. 三月 2017, 21:49

群星 / 华语老歌成名曲CD8

使用驱动器 :SlimtypeDVD A DS8A4S Adapter: 0 ID: 0

读取模式 : 保护
使用精确流 : 是
废除音频缓冲 : 是
使用 C2 指针 : 否

读取偏移校正 : 6
读取 Lead-In 和 Lead-Out : 否
用静音填充抓取中丢失偏移的采样 : 是
去除首尾静音块 : 否
在 CRC 计算中使用了空样本 : 否
已用接口 : Win NT 及 2000 本地 Win32 接口

所用输出格式 : 内部 WAV 函数
样本格式 : 44.100 Hz;16 Bit;立体声


被抓轨 CD 的 TOC

音轨 | 开始 | 长度 | 起始扇区 | 结尾扇区
--------------------------------------------------
1 | 0:00.00 | 3:21.66 | 0 | 15140
2 | 3:21.66 | 3:57.09 | 15141 | 32924
3 | 7:19.00 | 4:27.63 | 32925 | 53012
4 | 11:46.63 | 5:05.61 | 53013 | 75948
5 | 16:52.49 | 5:30.68 | 75949 | 100766
6 | 22:23.42 | 3:48.50 | 100767 | 117916
7 | 26:12.17 | 4:14.47 | 117917 | 137013
8 | 30:26.64 | 4:23.33 | 137014 | 156771
9 | 34:50.22 | 3:36.52 | 156772 | 173023
10 | 38:26.74 | 4:17.70 | 173024 | 192368
11 | 42:44.69 | 4:31.54 | 192369 | 212747
12 | 47:16.48 | 4:40.00 | 212748 | 233747
13 | 51:56.48 | 4:35.50 | 233748 | 254422
14 | 56:32.23 | 3:48.44 | 254423 | 271566
15 | 60:20.67 | 3:32.68 | 271567 | 287534
16 | 63:53.60 | 4:46.46 | 287535 | 309030


范围状态及错误

已选择范围

文件名 E:\★音乐收藏\原抓\群星《华语老歌成名曲》精选特辑8CD\华语老歌成名曲CD8.wav

峰值电平 100.0 %
范围质量 100.0 %
复制 CRC F88DCA54
复制成功

没有错误发生

状态报告结尾





----------------------------------------------
华声论坛 影音帝国 官方QQ群

影视时空|音乐地带 QQ群:140288348 128111319 42933722
音乐快递QQ群:338549863 原声地带QQ群:344590352
高品质单曲QQ群:116060792 心情音乐QQ群:154659931
心情吟诵QQ群:190584521 音乐播放器QQ群:206520165
华声论坛 有你更精彩!!
 
章鱼2012

回复时间:2017-6-24 20:24

免责声明:
本专辑仅供个人试听,版权归唱片公司所有,任何人不得用于商业用途!如果侵犯了你的权益请你留言指出、我如看见会在24小时内删除!





----------------------------------------------
华声论坛 影音帝国 官方QQ群

影视时空|音乐地带 QQ群:140288348 128111319 42933722
音乐快递QQ群:338549863 原声地带QQ群:344590352
高品质单曲QQ群:116060792 心情音乐QQ群:154659931
心情吟诵QQ群:190584521 音乐播放器QQ群:206520165
华声论坛 有你更精彩!!
 
日月星辰a

回复时间:2017-6-24 20:37
首席欣赏

 
典狱长

回复时间:2017-6-24 20:48
好专辑 谢谢平哥老师分享好资源

 
zxh1488

回复时间:2017-6-24 22:06
分享好资源

 
dtgs

回复时间:2017-6-24 22:48
分享好资源 ,谢谢楼主

 
wxysaeed

回复时间:2017-6-24 22:57
谢谢楼主,终于盼到了

 
huangshugao

回复时间:2017-6-24 22:58
永恒的旋律,永久的回味

 
xukunfengyou

回复时间:2017-6-25 00:17
多谢楼主

 
健康大使

回复时间:2017-6-25 05:54
分享好资源 ,谢谢楼主

 
胶东半岛

回复时间:2017-6-25 07:36
谢谢楼主

 
784802327

回复时间:2017-6-25 07:41
分享好资源

 
秋天2019

回复时间:2017-6-25 07:46
太好了终于更新了这套专辑的最后一张了等的花都谢了谢谢章鱼

 
阿弥托佛

回复时间:2017-6-25 09:17
谢谢分享!




----------------------------------------------

佑天佑地佑人 送福送禄送寿
看经典美图到三晋!



 
bin00000

回复时间:2017-6-25 09:24
谢谢分享!




----------------------------------------------
音乐是生命的一部分,
 
zncg198

回复时间:2017-6-25 09:39
岁月的点滴漂浮在音符里

 
发新帖 新投票
 回帖
查看积分策略说明快速回复主题
你的用户名: 密码:   免费注册(只要30秒)


启用 Html 代码
使用个人签名
(请您文明上网理性发言!并遵守相关规定
   



Processed in 0.026687 s, 9 q - 无图精简版,sitemap,