发新帖  新投票  回帖 
26601个阅读者,185条回复 | 打印 | 订阅 | 收藏
梦回云阳

发表时间:2017-7-18 11:03

群星·欧美金唱盘CDF【WAV+CUE/百度】   



梦回云阳 发表在 音乐地带 华声论坛 http://bbs.voc.com.cn/forum-77-1.html










下载测试资源
**** 本内容跟帖回复才可浏览 *****


本帖助威记录

yzzang +1
看了楼主的帖,神马都是浮云
2017-07-20 11:59:55
总计:魅力1点 助威1查看所有助威>>



----------------------------------------------
友情提醒:下载测试资源存放于免费网盘,不保证资源的长期有效;若有任何一方主张版权,请各管管或版版直接删除本帖,不用任何形式的通知我本人,谢谢。

华声论坛 影音帝国 官方QQ群
影视时空|音乐地带 QQ群:140288348 128111319 42933722
音乐快递QQ群:338549863 原声地带QQ群:344590352
高品质单曲QQ群:116060792 心情音乐QQ群:154659931
心情吟诵QQ群:190584521 音乐播放器QQ群:206520165
 
梦回云阳

回复时间:2017-7-18 11:04

专辑名称:欧美金唱盘CDF
专辑艺人:群星
出版公司:广州新时代像音公司
ISRC编号:CN-F21-08-326-00/A.J6
资源格式:WAV


专辑介绍:
欧美经典英文老歌曲合集,熟悉又悠扬的欧美好歌经典重理,盘点历年经典欧美曲目歌曲。
汲取不可思议的音乐力量,打开刻骨铭心的昔日往事,深情的歌声把我们带进了那个充满真实情感的年代;
怀旧的歌声所带来的快东与哀愁,缥缈迷离,足以让我陷入如梦如幻的情调中......

专辑曲目:
01.天下一家
02.我依然相信
03.天使怎么会伤的心
04.我们拥有今夜
05.我怎么活
06.风之彩
07.那是为何
08.我该怎么办
09.不管是什么
10.心跳
11.在阳光下
12.因为你
13.你的每一次呼吸
14.爱就在你周围
15.永恒的火焰
16.只有你





----------------------------------------------
友情提醒:下载测试资源存放于免费网盘,不保证资源的长期有效;若有任何一方主张版权,请各管管或版版直接删除本帖,不用任何形式的通知我本人,谢谢。

华声论坛 影音帝国 官方QQ群
影视时空|音乐地带 QQ群:140288348 128111319 42933722
音乐快递QQ群:338549863 原声地带QQ群:344590352
高品质单曲QQ群:116060792 心情音乐QQ群:154659931
心情吟诵QQ群:190584521 音乐播放器QQ群:206520165
 
梦回云阳

回复时间:2017-7-18 11:05

按此在新窗口浏览图片





----------------------------------------------
友情提醒:下载测试资源存放于免费网盘,不保证资源的长期有效;若有任何一方主张版权,请各管管或版版直接删除本帖,不用任何形式的通知我本人,谢谢。

华声论坛 影音帝国 官方QQ群
影视时空|音乐地带 QQ群:140288348 128111319 42933722
音乐快递QQ群:338549863 原声地带QQ群:344590352
高品质单曲QQ群:116060792 心情音乐QQ群:154659931
心情吟诵QQ群:190584521 音乐播放器QQ群:206520165
 
梦回云阳

回复时间:2017-7-18 11:05

按此在新窗口浏览图片





----------------------------------------------
友情提醒:下载测试资源存放于免费网盘,不保证资源的长期有效;若有任何一方主张版权,请各管管或版版直接删除本帖,不用任何形式的通知我本人,谢谢。

华声论坛 影音帝国 官方QQ群
影视时空|音乐地带 QQ群:140288348 128111319 42933722
音乐快递QQ群:338549863 原声地带QQ群:344590352
高品质单曲QQ群:116060792 心情音乐QQ群:154659931
心情吟诵QQ群:190584521 音乐播放器QQ群:206520165
 
梦回云阳

回复时间:2017-7-18 11:05

按此在新窗口浏览图片





----------------------------------------------
友情提醒:下载测试资源存放于免费网盘,不保证资源的长期有效;若有任何一方主张版权,请各管管或版版直接删除本帖,不用任何形式的通知我本人,谢谢。

华声论坛 影音帝国 官方QQ群
影视时空|音乐地带 QQ群:140288348 128111319 42933722
音乐快递QQ群:338549863 原声地带QQ群:344590352
高品质单曲QQ群:116060792 心情音乐QQ群:154659931
心情吟诵QQ群:190584521 音乐播放器QQ群:206520165
 
梦回云阳

回复时间:2017-7-18 11:07

抓轨前检测


按此在新窗口浏览图片


按此在新窗口浏览图片


按此在新窗口浏览图片





----------------------------------------------
友情提醒:下载测试资源存放于免费网盘,不保证资源的长期有效;若有任何一方主张版权,请各管管或版版直接删除本帖,不用任何形式的通知我本人,谢谢。

华声论坛 影音帝国 官方QQ群
影视时空|音乐地带 QQ群:140288348 128111319 42933722
音乐快递QQ群:338549863 原声地带QQ群:344590352
高品质单曲QQ群:116060792 心情音乐QQ群:154659931
心情吟诵QQ群:190584521 音乐播放器QQ群:206520165
 
梦回云阳

回复时间:2017-7-18 11:08
EAC 抓取日志文件


Exact Audio Copy V0.99 prebeta 4 from 23. January 2008

EAC 抓取日志文件从11. 一月 2017, 11:30

群星 / 欧美金唱盘CDF

使用驱动器 :MATSHITADVD-RAM UJ8E0 Adapter: 0 ID: 0

读取模式 : 保护
使用精确流 : 是
废除音频缓冲 : 否
使用 C2 指针 : 否

组合读/写偏移校正 : 0
读取 Lead-In 和 Lead-Out : 否
用静音填充抓取中丢失偏移的采样 : 是
去除首尾静音块 : 否
在 CRC 计算中使用了空样本 : 否
已用接口 : Win NT 及 2000 本地 Win32 接口

所用输出格式 : 内部 WAV 函数
样本格式 : 44.100 Hz;16 Bit;立体声


被抓轨 CD 的 TOC

音轨 | 开始 | 长度 | 起始扇区 | 结尾扇区
--------------------------------------------------
1 | 0:00.00 | 5:22.70 | 0 | 24219
2 | 5:22.70 | 3:56.46 | 24220 | 41965
3 | 9:19.41 | 4:22.24 | 41966 | 61639
4 | 13:41.65 | 3:43.01 | 61640 | 78365
5 | 17:24.66 | 4:17.58 | 78366 | 97698
6 | 21:42.49 | 4:19.72 | 97699 | 117195
7 | 26:02.46 | 4:16.46 | 117196 | 136441
8 | 30:19.17 | 4:30.35 | 136442 | 156726
9 | 34:49.52 | 4:35.72 | 156727 | 177423
10 | 39:25.49 | 3:57.68 | 177424 | 195266
11 | 43:23.42 | 3:34.25 | 195267 | 211341
12 | 46:57.67 | 5:02.26 | 211342 | 234017
13 | 52:00.18 | 4:15.69 | 234018 | 253211
14 | 56:16.12 | 4:00.20 | 253212 | 271231
15 | 60:16.32 | 3:58.17 | 271232 | 289098
16 | 64:14.49 | 2:37.00 | 289099 | 300873


范围状态及错误

已选择范围

文件名 F:\音频抓轨\群星 - 欧美金唱盘CDF.wav

峰值电平 100.0 %
范围质量 99.9 %
复制 CRC E4744937
复制成功

没有错误发生

状态报告结尾




----------------------------------------------
友情提醒:下载测试资源存放于免费网盘,不保证资源的长期有效;若有任何一方主张版权,请各管管或版版直接删除本帖,不用任何形式的通知我本人,谢谢。

华声论坛 影音帝国 官方QQ群
影视时空|音乐地带 QQ群:140288348 128111319 42933722
音乐快递QQ群:338549863 原声地带QQ群:344590352
高品质单曲QQ群:116060792 心情音乐QQ群:154659931
心情吟诵QQ群:190584521 音乐播放器QQ群:206520165
 
梦回云阳

回复时间:2017-7-18 11:08
所有音乐仅供测试及试听,音乐版权归原唱片公司所有,任何人不得用于商业用途!




----------------------------------------------
友情提醒:下载测试资源存放于免费网盘,不保证资源的长期有效;若有任何一方主张版权,请各管管或版版直接删除本帖,不用任何形式的通知我本人,谢谢。

华声论坛 影音帝国 官方QQ群
影视时空|音乐地带 QQ群:140288348 128111319 42933722
音乐快递QQ群:338549863 原声地带QQ群:344590352
高品质单曲QQ群:116060792 心情音乐QQ群:154659931
心情吟诵QQ群:190584521 音乐播放器QQ群:206520165
 
何人2017

回复时间:2017-7-18 12:06
收藏了,谢谢

 
nzw1969

回复时间:2017-7-18 13:58
谢谢分享

 
雨水煮茶

回复时间:2017-7-18 15:25
感谢分享

 
雪亮亮

回复时间:2017-7-18 15:44
等了很久了,谢谢分享

 
胶东半岛

回复时间:2017-7-18 16:04
感谢分享

 
yyfs

回复时间:2017-7-18 16:54
感谢分享

 
ZHSHGANG

回复时间:2017-7-18 17:06
感謝樓主的分享,收下了。

 
胜地高

回复时间:2017-7-18 17:13
谢谢,辛苦了

 
u1884

回复时间:2017-7-18 17:14
感谢分享

 
ganguangli

回复时间:2017-7-18 20:07
经典的英文歌曲,谢谢分享

 
longshi5

回复时间:2017-7-18 20:20
等了很久了,谢谢版主的分享!

 
奈维

回复时间:2017-7-18 21:15
谢谢分享

 
发新帖 新投票
 回帖
查看积分策略说明快速回复主题
你的用户名: 密码:   免费注册(只要30秒)


启用 Html 代码
使用个人签名
(请您文明上网理性发言!并遵守相关规定
   



Processed in 0.017766 s, 9 q - 无图精简版,sitemap,