发新帖  新投票  回帖 
70351个阅读者,358条回复 | 打印 | 订阅 | 收藏
章鱼2012

发表时间:2017-7-18 23:30

TO:星月传奇芳辰《老歌珍藏 一人一首成名曲》CD1[WAV/CUE/320k/pp]   



章鱼2012 发表在 音乐地带 华声论坛 http://bbs.voc.com.cn/forum-77-1.html



下载

**** 本内容跟帖回复才可浏览 *****

本帖助威记录

caifzhong +1
看了楼主的帖,神马都是浮云
2017-09-24 11:28:01
纪录休闲生活 +1
你的帖子可以上新闻联播了
2017-09-20 16:17:10
金钱豹2015 +1
你的帖子可以上新闻联播了
2017-09-12 21:05:26
zhangjy19850901 +1
比这精彩的帖子还有木有
2017-08-13 16:16:00
Ayung +1
很好听
2017-08-07 20:54:59
总计:魅力7点 助威7查看所有助威>>



----------------------------------------------
华声论坛 影音帝国 官方QQ群

影视时空|音乐地带 QQ群:140288348 128111319 42933722
音乐快递QQ群:338549863 原声地带QQ群:344590352
高品质单曲QQ群:116060792 心情音乐QQ群:154659931
心情吟诵QQ群:190584521 音乐播放器QQ群:206520165
华声论坛 有你更精彩!!
 
章鱼2012

回复时间:2017-7-18 23:30

按此在新窗口浏览图片

按此在新窗口浏览图片

按此在新窗口浏览图片





----------------------------------------------
华声论坛 影音帝国 官方QQ群

影视时空|音乐地带 QQ群:140288348 128111319 42933722
音乐快递QQ群:338549863 原声地带QQ群:344590352
高品质单曲QQ群:116060792 心情音乐QQ群:154659931
心情吟诵QQ群:190584521 音乐播放器QQ群:206520165
华声论坛 有你更精彩!!
 
章鱼2012

回复时间:2017-7-18 23:31

唱片名称:老歌珍藏 一人一首成名曲 12CD
唱片艺人:群星
出版发行:武汉音像出版社
ISRC:CN-F05-07-328-00/A.J6
原抓资源:章鱼
资源格式:WAV+CUE

唱片介绍:
精挑细选经典老歌 无限回味传唱永恒
车载音乐 汽车Hi-Fi音乐文化 享受艺术音乐生活
专为汽车音响量身定做的Hi-Fi音乐
让优美的歌声伴随你 令你在飞弛中享受近乎无暇的美妙旋律

唱片曲目CD1:


01.吻别.....................5:03
02.我愿意...................4:29
03.爱如潮水.................4:30
04.寂寞在唱歌...............4:30
05.爱上一个不回家的人.......4:57
06.爱你一万年...............4:50
07.亲密爱人.................4:57
08.海浪.....................4:51
09.橄榄树...................3:42
10.曾经心疼.................4:39
11.大约在冬季...............4:57
12.那个傻瓜爱过你...........4:11
13.永远到底有多远...........4:02





----------------------------------------------
华声论坛 影音帝国 官方QQ群

影视时空|音乐地带 QQ群:140288348 128111319 42933722
音乐快递QQ群:338549863 原声地带QQ群:344590352
高品质单曲QQ群:116060792 心情音乐QQ群:154659931
心情吟诵QQ群:190584521 音乐播放器QQ群:206520165
华声论坛 有你更精彩!!
 
章鱼2012

回复时间:2017-7-18 23:31

按此在新窗口浏览图片
按此在新窗口浏览图片
按此在新窗口浏览图片
按此在新窗口浏览图片





----------------------------------------------
华声论坛 影音帝国 官方QQ群

影视时空|音乐地带 QQ群:140288348 128111319 42933722
音乐快递QQ群:338549863 原声地带QQ群:344590352
高品质单曲QQ群:116060792 心情音乐QQ群:154659931
心情吟诵QQ群:190584521 音乐播放器QQ群:206520165
华声论坛 有你更精彩!!
 
章鱼2012

回复时间:2017-7-18 23:32

Exact Audio Copy V0.99 prebeta 4 from 23. January 2008

EAC 抓取日志文件从18. 七月 2017, 14:53

章鱼原抓 / 老歌珍藏 一人一首成名曲CD1

使用驱动器 :ATAPI iHDS118 8 Adapter: 0 ID: 0

读取模式 : 保护
使用精确流 : 是
废除音频缓冲 : 是
使用 C2 指针 : 否

组合读/写偏移校正 : 0
读取 Lead-In 和 Lead-Out : 否
用静音填充抓取中丢失偏移的采样 : 是
去除首尾静音块 : 否
在 CRC 计算中使用了空样本 : 否
已用接口 : Win NT 及 2000 本地 Win32 接口

所用输出格式 : 内部 WAV 函数
样本格式 : 44.100 Hz;16 Bit;立体声


被抓轨 CD 的 TOC

音轨 | 开始 | 长度 | 起始扇区 | 结尾扇区
--------------------------------------------------
1 | 0:00.00 | 5:05.29 | 0 | 22903
2 | 5:05.29 | 4:31.06 | 22904 | 43234
3 | 9:36.35 | 4:32.36 | 43235 | 63670
4 | 14:08.71 | 4:32.00 | 63671 | 84070
5 | 18:40.71 | 4:59.00 | 84071 | 106495
6 | 23:39.71 | 4:52.00 | 106496 | 128395
7 | 28:31.71 | 4:59.10 | 128396 | 150830
8 | 33:31.06 | 4:54.00 | 150831 | 172880
9 | 38:25.06 | 3:44.53 | 172881 | 189733
10 | 42:09.59 | 4:41.32 | 189734 | 210840
11 | 46:51.16 | 4:59.28 | 210841 | 233293
12 | 51:50.44 | 4:13.02 | 233294 | 252270
13 | 56:03.46 | 4:00.26 | 252271 | 270296


范围状态及错误

已选择范围

文件名 F:\音乐收藏\老歌珍藏12CD\CD1\章鱼原抓 - 老歌珍藏 一人一首成名曲CD1.wav



峰值电平 100.0 %
范围质量 100.0 %
复制 CRC BA264FAB
复制结束

没有错误发生

状态报告结尾





----------------------------------------------
华声论坛 影音帝国 官方QQ群

影视时空|音乐地带 QQ群:140288348 128111319 42933722
音乐快递QQ群:338549863 原声地带QQ群:344590352
高品质单曲QQ群:116060792 心情音乐QQ群:154659931
心情吟诵QQ群:190584521 音乐播放器QQ群:206520165
华声论坛 有你更精彩!!
 
章鱼2012

回复时间:2017-7-18 23:32

免责声明:
本专辑仅供个人试听,版权归唱片公司所有,任何人不得用于商业用途!如侵犯了你的权益请留言指出、我会在24小时内删除!





----------------------------------------------
华声论坛 影音帝国 官方QQ群

影视时空|音乐地带 QQ群:140288348 128111319 42933722
音乐快递QQ群:338549863 原声地带QQ群:344590352
高品质单曲QQ群:116060792 心情音乐QQ群:154659931
心情吟诵QQ群:190584521 音乐播放器QQ群:206520165
华声论坛 有你更精彩!!
 
秋天2019

回复时间:2017-7-19 07:39
哇塞章鱼又出新套装了很好可以和上一套8CD的专辑媲美了看来又要再入手一个16或者32的TF卡了要不两套专辑装不下

 
zhph440805

回复时间:2017-7-19 08:00
感谢分享!

 
神秘的木鱼石

回复时间:2017-7-19 10:51
老歌就像存放多年的酒,芳香扑鼻~ 谢谢分享~

 
雨水煮茶

回复时间:2017-7-19 11:20
感谢分享

 
yuren3574

回复时间:2017-7-19 11:22
感谢分享!

 
阿弥托佛

回复时间:2017-7-19 12:17
谢谢分享!




----------------------------------------------

佑天佑地佑人 送福送禄送寿
看经典美图到三晋!



 
敬萱

回复时间:2017-7-19 13:51
谢谢分享

 
yangmh8

回复时间:2017-7-19 15:23
谢谢分享

 
一江春水ABC

回复时间:2017-7-19 19:20
谢谢分享!章鱼辛苦!




----------------------------------------------
余音绕梁
 
阳光天空KTV

回复时间:2017-7-19 19:31
好歌下来听听

 
cngx

回复时间:2017-7-19 19:47
好听,好歌,谢谢,辛苦了!

 
ucucok

回复时间:2017-7-19 20:45
这音质棒棒的,赞,谢谢分享!

 
skingliu_1988

回复时间:2017-7-19 21:33

 
xvbang

回复时间:2017-7-19 21:58
车载高品质音乐。谢谢分享。

 
发新帖 新投票
 回帖
查看积分策略说明快速回复主题
你的用户名: 密码:   免费注册(只要30秒)


启用 Html 代码
使用个人签名
(请您文明上网理性发言!并遵守相关规定
   



Processed in 0.033644 s, 9 q - 无图精简版,sitemap,