发新帖  新投票  回帖 
12220个阅读者,177条回复 | 打印 | 订阅 | 收藏
章鱼2012

发表时间:2017-9-25 15:14

车载音乐《老歌珍藏 一人一首成名曲》CD3[WAV/CUE/320k/pp]   



章鱼2012 发表在 音乐快递 华声论坛 http://bbs.voc.com.cn/forum-371-1.html


下载

**** 本内容跟帖回复才可浏览 *****

本帖助威记录

木土庆 +1
牛!估计我这辈子再也见不到这样的帖子了
2017-10-12 17:26:52
老鼠头 +1
2017-10-11 17:12:26
小美女007 +1
你的帖子可以上新闻联播了
2017-09-26 07:15:01
炫舞e时空 +5
经典老歌,好听!感谢章鱼版版原抓分享!
2017-09-25 15:32:01
总计:魅力8点 助威4查看所有助威>>



----------------------------------------------
华声论坛 影音帝国 官方QQ群

影视时空|音乐地带 QQ群:140288348 128111319 42933722
音乐快递QQ群:338549863 原声地带QQ群:344590352
高品质单曲QQ群:116060792 心情音乐QQ群:154659931
心情吟诵QQ群:190584521 音乐播放器QQ群:206520165
华声论坛 有你更精彩!!
 
章鱼2012

回复时间:2017-9-25 15:14

按此在新窗口浏览图片

按此在新窗口浏览图片

按此在新窗口浏览图片





----------------------------------------------
华声论坛 影音帝国 官方QQ群

影视时空|音乐地带 QQ群:140288348 128111319 42933722
音乐快递QQ群:338549863 原声地带QQ群:344590352
高品质单曲QQ群:116060792 心情音乐QQ群:154659931
心情吟诵QQ群:190584521 音乐播放器QQ群:206520165
华声论坛 有你更精彩!!
 
章鱼2012

回复时间:2017-9-25 15:15

唱片名称:老歌珍藏 一人一首成名曲 12CD
唱片艺人:群星
出版发行:武汉音像出版社
ISRC:CN-F05-07-328-00/A.J6
原抓资源:章鱼
资源格式:WAV+CUE

唱片介绍:
精挑细选经典老歌 无限回味传唱永恒
车载音乐 汽车Hi-Fi音乐文化 享受艺术音乐生活
专为汽车音响量身定做的Hi-Fi音乐
让优美的歌声伴随你 令你在飞弛中享受近乎无暇的美妙旋律

唱片曲目CD3:


01.味道.....................3:33
02.在回首...................4:11
03.光阴的故事...............3:21
04.一生爱你千百回...........4:40
05.很爱很爱你...............4:42
06.容易受伤的女人...........4:18
07.水手.....................4:53
08.思念谁...................4:05
09.朋友别哭.................4.09
10.值得.....................4:24
11.挪威的森林...............6:32
12.把悲伤留给自己...........4:28
13.其实你不懂我的心.........3:14





----------------------------------------------
华声论坛 影音帝国 官方QQ群

影视时空|音乐地带 QQ群:140288348 128111319 42933722
音乐快递QQ群:338549863 原声地带QQ群:344590352
高品质单曲QQ群:116060792 心情音乐QQ群:154659931
心情吟诵QQ群:190584521 音乐播放器QQ群:206520165
华声论坛 有你更精彩!!
 
章鱼2012

回复时间:2017-9-25 15:16

按此在新窗口浏览图片
按此在新窗口浏览图片
按此在新窗口浏览图片
按此在新窗口浏览图片





----------------------------------------------
华声论坛 影音帝国 官方QQ群

影视时空|音乐地带 QQ群:140288348 128111319 42933722
音乐快递QQ群:338549863 原声地带QQ群:344590352
高品质单曲QQ群:116060792 心情音乐QQ群:154659931
心情吟诵QQ群:190584521 音乐播放器QQ群:206520165
华声论坛 有你更精彩!!
 
章鱼2012

回复时间:2017-9-25 15:16

Exact Audio Copy V0.99 prebeta 4 from 23. January 2008

EAC 抓取日志文件从23. 九月 2017, 22:34

章鱼原抓 / 老歌珍藏 一人一首成名曲 CD3

使用驱动器 :BENQ DVDROM DD18SA Adapter: 3 ID: 0

读取模式 : 保护
使用精确流 : 是
废除音频缓冲 : 是
使用 C2 指针 : 否

读取偏移校正 : 0
读取 Lead-In 和 Lead-Out : 否
用静音填充抓取中丢失偏移的采样 : 是
去除首尾静音块 : 否
在 CRC 计算中使用了空样本 : 否
已用接口 : Win NT 及 2000 本地 Win32 接口

所用输出格式 : 内部 WAV 函数
样本格式 : 44.100 Hz;16 Bit;立体声


被抓轨 CD 的 TOC

音轨 | 开始 | 长度 | 起始扇区 | 结尾扇区
--------------------------------------------------
1 | 0:00.00 | 3:57.36 | 0 | 17810
2 | 3:57.36 | 4:13.72 | 17811 | 36857
3 | 8:11.33 | 3:23.00 | 36858 | 52082
4 | 11:34.33 | 4:42.59 | 52083 | 73291
5 | 16:17.17 | 4:44.16 | 73292 | 94607
6 | 21:01.33 | 4:21.49 | 94608 | 114231
7 | 25:23.07 | 4:55.37 | 114232 | 136393
8 | 30:18.44 | 4:09.05 | 136394 | 155073
9 | 34:27.49 | 4:11.71 | 155074 | 173969
10 | 38:39.45 | 4:26.00 | 173970 | 193919
11 | 43:05.45 | 6:34.33 | 193920 | 223502
12 | 49:40.03 | 4:32.42 | 223503 | 243944
13 | 54:12.45 | 3:13.55 | 243945 | 258474


范围状态及错误

已选择范围

文件名 E:\★音乐收藏\原抓\章鱼原抓 - 老歌珍藏 一人一首成名曲 CD3.wav

峰值电平 100.0 %
范围质量 100.0 %
复制 CRC D69548F7
复制结束


没有错误发生

状态报告结尾





----------------------------------------------
华声论坛 影音帝国 官方QQ群

影视时空|音乐地带 QQ群:140288348 128111319 42933722
音乐快递QQ群:338549863 原声地带QQ群:344590352
高品质单曲QQ群:116060792 心情音乐QQ群:154659931
心情吟诵QQ群:190584521 音乐播放器QQ群:206520165
华声论坛 有你更精彩!!
 
章鱼2012

回复时间:2017-9-25 15:16

免责声明:
本专辑仅供个人试听,版权归唱片公司所有,任何人不得用于商业用途!如侵犯了你的权益请留言指出、我会在24小时内删除!





----------------------------------------------
华声论坛 影音帝国 官方QQ群

影视时空|音乐地带 QQ群:140288348 128111319 42933722
音乐快递QQ群:338549863 原声地带QQ群:344590352
高品质单曲QQ群:116060792 心情音乐QQ群:154659931
心情吟诵QQ群:190584521 音乐播放器QQ群:206520165
华声论坛 有你更精彩!!
 
炫舞e时空

回复时间:2017-9-25 15:32
经典老歌,好听!感谢章鱼版版原抓分享!




----------------------------------------------
华声论坛 影音帝国 官方QQ群
影视时空|音乐地带 QQ群:140288348 128111319 42933722
音乐快递QQ群:338549863 原声地带QQ群:344590352
高品质单曲QQ群:116060792 心情音乐QQ群:154659931
心情吟诵QQ群:190584521 音乐播放器QQ群:206520165

华声论坛 有你更精彩!!
 
炫舞e时空

回复时间:2017-9-25 15:35
熟悉的旋律,经典的老歌,值得收藏。感谢章鱼版版辛苦制作!秋凉了,遥祝秋日安好!




----------------------------------------------
华声论坛 影音帝国 官方QQ群
影视时空|音乐地带 QQ群:140288348 128111319 42933722
音乐快递QQ群:338549863 原声地带QQ群:344590352
高品质单曲QQ群:116060792 心情音乐QQ群:154659931
心情吟诵QQ群:190584521 音乐播放器QQ群:206520165

华声论坛 有你更精彩!!
 
439195969

回复时间:2017-9-25 23:08
喜欢喜欢喜欢喜欢喜欢喜欢喜欢喜欢喜欢

 
随便起来不是人

回复时间:2017-9-26 06:33
感谢章鱼版版原抓分享

 
马钱子

回复时间:2017-9-26 06:57

 
小美女007

回复时间:2017-9-26 07:15
是我想要的。作者声明:本帖为本人原创,未经本人和华声论坛许可,不得转载

 
zkj1955

回复时间:2017-9-26 09:09
精挑细选经典老歌

 
雨水煮茶

回复时间:2017-9-26 10:05
感谢分享

 
bin00000

回复时间:2017-9-26 10:18
谢谢分享!




----------------------------------------------
音乐是生命的一部分,
 
bzn01

回复时间:2017-9-26 14:46
谢谢分享

 
速育

回复时间:2017-9-26 15:15
经典老歌,好听!感谢章鱼版版分享!

 
uofljw

回复时间:2017-9-26 20:45
感谢分享

 
mam2017

回复时间:2017-9-27 06:11
感谢分享

 
RODGERFANG1973

回复时间:2017-9-27 09:25
DING,DING

 
发新帖 新投票
 回帖
查看积分策略说明快速回复主题
你的用户名: 密码:   免费注册(只要30秒)


启用 Html 代码
使用个人签名
(请您文明上网理性发言!并遵守相关规定
   



Processed in 0.031891 s, 9 q - 无图精简版,sitemap,