发新帖  新投票  回帖 
6230个阅读者,86条回复 | 打印 | 订阅 | 收藏
章鱼2012

发表时间:2017-9-25 15:34

车载音乐《老歌珍藏 一人一首成名曲》CD4[WAV/CUE/320k/pp]   



章鱼2012 发表在 音乐快递 华声论坛 http://bbs.voc.com.cn/forum-371-1.html


下载

**** 本内容跟帖回复才可浏览 *****

[本帖最后由 炫舞e时空 于 2017-9-25 15:42 编辑]

本帖助威记录

炫舞e时空 +5
经典老歌,熟悉的旋律,感谢章鱼版版原抓分享!
2017-09-25 15:48:59
总计:魅力5点 助威1查看所有助威>>



----------------------------------------------
华声论坛 影音帝国 官方QQ群

影视时空|音乐地带 QQ群:140288348 128111319 42933722
音乐快递QQ群:338549863 原声地带QQ群:344590352
高品质单曲QQ群:116060792 心情音乐QQ群:154659931
心情吟诵QQ群:190584521 音乐播放器QQ群:206520165
华声论坛 有你更精彩!!
 
章鱼2012

回复时间:2017-9-25 15:34

按此在新窗口浏览图片

按此在新窗口浏览图片

按此在新窗口浏览图片





----------------------------------------------
华声论坛 影音帝国 官方QQ群

影视时空|音乐地带 QQ群:140288348 128111319 42933722
音乐快递QQ群:338549863 原声地带QQ群:344590352
高品质单曲QQ群:116060792 心情音乐QQ群:154659931
心情吟诵QQ群:190584521 音乐播放器QQ群:206520165
华声论坛 有你更精彩!!
 
章鱼2012

回复时间:2017-9-25 15:34

唱片名称:老歌珍藏 一人一首成名曲 12CD
唱片艺人:群星
出版发行:武汉音像出版社
ISRC:CN-F05-07-328-00/A.J6
原抓资源:章鱼
资源格式:WAV+CUE

唱片介绍:
精挑细选经典老歌 无限回味传唱永恒
车载音乐 汽车Hi-Fi音乐文化 享受艺术音乐生活
专为汽车音响量身定做的Hi-Fi音乐
让优美的歌声伴随你 令你在飞弛中享受近乎无暇的美妙旋律

唱片曲目CD4:


01.往事随风....................4:37
02.恰似你的温柔................4:14
03.浪人情歌....................4:28
04.口是心非....................4:29
05.我可以抱你吗................4:53
06.忘记你我做不到..............4:54
07.爱我你怕了吗................4:44
08.是否完整的一无所有..........4:25
09.酒干倘卖无..................4.49
10.老情歌......................4:50
11.风雨无阻....................3:32
12.不是我不小心................4:34
13.让我一次爱个够..............4:19





----------------------------------------------
华声论坛 影音帝国 官方QQ群

影视时空|音乐地带 QQ群:140288348 128111319 42933722
音乐快递QQ群:338549863 原声地带QQ群:344590352
高品质单曲QQ群:116060792 心情音乐QQ群:154659931
心情吟诵QQ群:190584521 音乐播放器QQ群:206520165
华声论坛 有你更精彩!!
 
章鱼2012

回复时间:2017-9-25 15:35

按此在新窗口浏览图片

按此在新窗口浏览图片

按此在新窗口浏览图片

按此在新窗口浏览图片





----------------------------------------------
华声论坛 影音帝国 官方QQ群

影视时空|音乐地带 QQ群:140288348 128111319 42933722
音乐快递QQ群:338549863 原声地带QQ群:344590352
高品质单曲QQ群:116060792 心情音乐QQ群:154659931
心情吟诵QQ群:190584521 音乐播放器QQ群:206520165
华声论坛 有你更精彩!!
 
章鱼2012

回复时间:2017-9-25 15:36

Exact Audio Copy V0.99 prebeta 4 from 23. January 2008

EAC 抓取日志文件从23. 九月 2017, 22:50

章鱼原抓 / 老歌珍藏 一人一首成名曲 CD4

使用驱动器 :BENQ DVDROM DD18SA Adapter: 3 ID: 0

读取模式 : 保护
使用精确流 : 是
废除音频缓冲 : 是
使用 C2 指针 : 否

读取偏移校正 : 0
读取 Lead-In 和 Lead-Out : 否
用静音填充抓取中丢失偏移的采样 : 是
去除首尾静音块 : 否
在 CRC 计算中使用了空样本 : 否
已用接口 : Win NT 及 2000 本地 Win32 接口

所用输出格式 : 内部 WAV 函数
样本格式 : 44.100 Hz;16 Bit;立体声


被抓轨 CD 的 TOC

音轨 | 开始 | 长度 | 起始扇区 | 结尾扇区
--------------------------------------------------
1 | 0:00.00 | 4:39.43 | 0 | 20967
2 | 4:39.43 | 4:16.25 | 20968 | 40192
3 | 8:55.68 | 4:30.68 | 40193 | 60510
4 | 13:26.61 | 4:51.26 | 60511 | 82361
5 | 18:18.12 | 4:55.01 | 82362 | 104487
6 | 23:13.13 | 4:56.64 | 104488 | 126751
7 | 28:10.02 | 4:46.40 | 126752 | 148241
8 | 32:56.42 | 4:27.12 | 148242 | 168278
9 | 37:23.54 | 4:51.49 | 168279 | 190152
10 | 42:15.28 | 4:52.34 | 190153 | 212086
11 | 47:07.62 | 4:36.25 | 212087 | 232811
12 | 51:44.12 | 4:36.00 | 232812 | 253511
13 | 56:20.12 | 4:17.13 | 253512 | 272799


范围状态及错误

已选择范围

文件名 E:\★音乐收藏\原抓\章鱼原抓 - 老歌珍藏 一人一首成名曲 CD4.wav

峰值电平 100.0 %
范围质量 100.0 %
复制 CRC 3505E8A4
复制结束



没有错误发生

状态报告结尾





----------------------------------------------
华声论坛 影音帝国 官方QQ群

影视时空|音乐地带 QQ群:140288348 128111319 42933722
音乐快递QQ群:338549863 原声地带QQ群:344590352
高品质单曲QQ群:116060792 心情音乐QQ群:154659931
心情吟诵QQ群:190584521 音乐播放器QQ群:206520165
华声论坛 有你更精彩!!
 
章鱼2012

回复时间:2017-9-25 15:36

免责声明:
本专辑仅供个人试听,版权归唱片公司所有,任何人不得用于商业用途!如侵犯了你的权益请留言指出、我会在24小时内删除!





----------------------------------------------
华声论坛 影音帝国 官方QQ群

影视时空|音乐地带 QQ群:140288348 128111319 42933722
音乐快递QQ群:338549863 原声地带QQ群:344590352
高品质单曲QQ群:116060792 心情音乐QQ群:154659931
心情吟诵QQ群:190584521 音乐播放器QQ群:206520165
华声论坛 有你更精彩!!
 
炫舞e时空

回复时间:2017-9-25 15:48
经典老歌,熟悉的旋律,感谢章鱼版版原抓分享!




----------------------------------------------
华声论坛 影音帝国 官方QQ群
影视时空|音乐地带 QQ群:140288348 128111319 42933722
音乐快递QQ群:338549863 原声地带QQ群:344590352
高品质单曲QQ群:116060792 心情音乐QQ群:154659931
心情吟诵QQ群:190584521 音乐播放器QQ群:206520165

华声论坛 有你更精彩!!
 
炫舞e时空

回复时间:2017-9-25 15:54
沙发欣赏!图美曲靓!优美动听的调调!喜欢哦!感谢章鱼版版原抓分享!辛苦了!双节将至,遥祝节日快乐!




----------------------------------------------
华声论坛 影音帝国 官方QQ群
影视时空|音乐地带 QQ群:140288348 128111319 42933722
音乐快递QQ群:338549863 原声地带QQ群:344590352
高品质单曲QQ群:116060792 心情音乐QQ群:154659931
心情吟诵QQ群:190584521 音乐播放器QQ群:206520165

华声论坛 有你更精彩!!
 
zhumin2016

回复时间:2017-9-25 17:29
谢谢楼主分享,谢谢!

 
439195969

回复时间:2017-9-25 23:07
喜欢喜欢喜欢

 
随便起来不是人

回复时间:2017-9-26 06:31
感谢章鱼版版原抓分享

 
zkj1955

回复时间:2017-9-26 09:11
精挑细选经典老歌

 
雨水煮茶

回复时间:2017-9-26 10:11
感谢分享

 
bin00000

回复时间:2017-9-26 10:35
谢谢分享!




----------------------------------------------
音乐是生命的一部分,
 
mam2017

回复时间:2017-9-26 15:01
感谢分享

 
bzn01

回复时间:2017-9-26 15:06
谢谢分享

 
速育

回复时间:2017-9-26 15:17
经典老歌,熟悉的旋律,感谢章鱼版版分享!

 
逆向流动的鱼

回复时间:2017-9-26 16:11
谢谢分享

 
a240150052

回复时间:2017-9-26 19:26


本帖最近评分记录
炫舞e时空   2017-10-10 19:53  金钱  -20   请不要灌水式回复
炫舞e时空   2017-10-10 19:53  魅力  -20   请不要灌水式回复
 
RODGERFANG1973

回复时间:2017-9-27 09:52
顶,顶

 
发新帖 新投票
 回帖
查看积分策略说明快速回复主题
你的用户名: 密码:   免费注册(只要30秒)


启用 Html 代码
使用个人签名
(请您文明上网理性发言!并遵守相关规定
   



Processed in 0.029673 s, 10 q - 无图精简版,sitemap,