发新帖  新投票  回帖 
16457个阅读者,211条回复 | 打印 | 订阅 | 收藏
章鱼2012

发表时间:2017-10-31 14:20

车载音乐《老歌珍藏 一人一首成名曲》CD6 [WAV/CUE/320k/pp]   



章鱼2012 发表在 音乐地带 华声论坛 http://bbs.voc.com.cn/forum-77-1.html



下载

**** 本内容跟帖回复才可浏览 *****

本帖助威记录

炫舞e时空 +5
比这精彩的帖子还有木有
2017-11-04 19:39:59
li1962888 +3
比这精彩的帖子还有木有
2017-11-01 09:33:02
总计:魅力8点 助威2查看所有助威>>



----------------------------------------------
华声论坛 影音帝国 官方QQ群

影视时空|音乐地带 QQ群:140288348 128111319 42933722
音乐快递QQ群:338549863 原声地带QQ群:344590352
高品质单曲QQ群:116060792 心情音乐QQ群:154659931
心情吟诵QQ群:190584521 音乐播放器QQ群:206520165
华声论坛 有你更精彩!!
 
章鱼2012

回复时间:2017-10-31 14:21

按此在新窗口浏览图片
按此在新窗口浏览图片
按此在新窗口浏览图片





----------------------------------------------
华声论坛 影音帝国 官方QQ群

影视时空|音乐地带 QQ群:140288348 128111319 42933722
音乐快递QQ群:338549863 原声地带QQ群:344590352
高品质单曲QQ群:116060792 心情音乐QQ群:154659931
心情吟诵QQ群:190584521 音乐播放器QQ群:206520165
华声论坛 有你更精彩!!
 
章鱼2012

回复时间:2017-10-31 14:21

唱片名称:老歌珍藏 一人一首成名曲 12CD
唱片艺人:群星
出版发行:武汉音像出版社
ISRC:CN-F05-07-328-00/A.J6
原抓资源:章鱼
资源格式:WAV+CUE

唱片介绍:
精挑细选经典老歌 无限回味传唱永恒
车载音乐 汽车Hi-Fi音乐文化 享受艺术音乐生活
专为汽车音响量身定做的Hi-Fi音乐
让优美的歌声伴随你 令你在飞弛中享受近乎无暇的美妙旋律

唱片曲目CD6:


01.大海........................4:36
02.记事本......................4:09
03.你的眼神....................4:09
04.别让我一个人醉..............3:59
05.剪爱........................5:18
06.雨一直下....................4:51
07.三万英尺....................4:43
08.爱我的人和我爱的人..........4:19
09.最熟悉的陌生人..............4.20
10.最浪漫的事..................4:24
11.像雾像雨又像风..............3:43
12.只要你过得比我好............4:34
13.你怎么舍得让我难过..........4:52





----------------------------------------------
华声论坛 影音帝国 官方QQ群

影视时空|音乐地带 QQ群:140288348 128111319 42933722
音乐快递QQ群:338549863 原声地带QQ群:344590352
高品质单曲QQ群:116060792 心情音乐QQ群:154659931
心情吟诵QQ群:190584521 音乐播放器QQ群:206520165
华声论坛 有你更精彩!!
 
章鱼2012

回复时间:2017-10-31 14:22

按此在新窗口浏览图片
按此在新窗口浏览图片
按此在新窗口浏览图片
按此在新窗口浏览图片





----------------------------------------------
华声论坛 影音帝国 官方QQ群

影视时空|音乐地带 QQ群:140288348 128111319 42933722
音乐快递QQ群:338549863 原声地带QQ群:344590352
高品质单曲QQ群:116060792 心情音乐QQ群:154659931
心情吟诵QQ群:190584521 音乐播放器QQ群:206520165
华声论坛 有你更精彩!!
 
章鱼2012

回复时间:2017-10-31 14:22

Exact Audio Copy V0.99 prebeta 4 from 23. January 2008

EAC 抓取日志文件从4. 十月 2017, 14:45

章鱼原抓 / 老歌珍藏 一人一首成名曲 CD6

使用驱动器 :BENQ DVDROM DD18SA Adapter: 3 ID: 0

读取模式 : 保护
使用精确流 : 是
废除音频缓冲 : 是
使用 C2 指针 : 否

读取偏移校正 : 0
读取 Lead-In 和 Lead-Out : 否
用静音填充抓取中丢失偏移的采样 : 是
去除首尾静音块 : 否
在 CRC 计算中使用了空样本 : 否
已用接口 : Win NT 及 2000 本地 Win32 接口

所用输出格式 : 内部 WAV 函数
样本格式 : 44.100 Hz;16 Bit;立体声


被抓轨 CD 的 TOC

音轨 | 开始 | 长度 | 起始扇区 | 结尾扇区
--------------------------------------------------
1 | 0:00.00 | 4:38.54 | 0 | 20903
2 | 4:38.54 | 4:11.53 | 20904 | 39781
3 | 8:50.32 | 4:11.62 | 39782 | 58668
4 | 13:02.19 | 4:01.26 | 58669 | 76769
5 | 17:03.45 | 4:42.69 | 76770 | 97988
6 | 21:46.39 | 5:00.23 | 97989 | 120511
7 | 26:46.62 | 4:45.08 | 120512 | 141894
8 | 31:31.70 | 4:21.15 | 141895 | 161484
9 | 35:53.10 | 4:22.51 | 161485 | 181185
10 | 40:15.61 | 4:26.42 | 181186 | 201177
11 | 44:42.28 | 3:47.00 | 201178 | 218202
12 | 48:29.28 | 4:38.37 | 218203 | 239089
13 | 53:07.65 | 4:51.29 | 239090 | 260943


范围状态及错误

已选择范围

文件名 E:\★音乐收藏\原抓\车载音乐《老歌珍藏 一人一首成名曲》CD6【wav+cue】\章鱼原抓 - 老歌珍藏 一人一首成名曲 CD6.wav

峰值电平 100.0 %
范围质量 100.0 %
复制 CRC B0CD1365
复制结束



没有错误发生

状态报告结尾





----------------------------------------------
华声论坛 影音帝国 官方QQ群

影视时空|音乐地带 QQ群:140288348 128111319 42933722
音乐快递QQ群:338549863 原声地带QQ群:344590352
高品质单曲QQ群:116060792 心情音乐QQ群:154659931
心情吟诵QQ群:190584521 音乐播放器QQ群:206520165
华声论坛 有你更精彩!!
 
章鱼2012

回复时间:2017-10-31 14:23

免责声明:
本专辑仅供个人试听,版权归唱片公司所有,任何人不得用于商业用途!如侵犯了你的权益请留言指出、我会在24小时内删除!





----------------------------------------------
华声论坛 影音帝国 官方QQ群

影视时空|音乐地带 QQ群:140288348 128111319 42933722
音乐快递QQ群:338549863 原声地带QQ群:344590352
高品质单曲QQ群:116060792 心情音乐QQ群:154659931
心情吟诵QQ群:190584521 音乐播放器QQ群:206520165
华声论坛 有你更精彩!!
 
lufeng1968

回复时间:2017-10-31 14:50
谢谢楼主分享

 
万厦

回复时间:2017-10-31 15:08
谢谢分享,辛苦了!

 
zkj1955

回复时间:2017-10-31 19:06
享受近乎无暇的美妙旋律

 
csq154527

回复时间:2017-10-31 20:49
老歌耐听 谢谢章鱼版主分享 辛苦了




----------------------------------------------
戴 上 [ 耳 机 ] 、 世 界 与 我 无 关 、
 
阿蒙神

回复时间:2017-10-31 22:57
老歌耐听 谢谢

 
li1962888

回复时间:2017-11-1 09:32
欣赏佳作,谢谢分享!

 
hrbks

回复时间:2017-11-1 10:16
谢谢分享!

 
lcj710503

回复时间:2017-11-1 11:04
欣赏佳作,谢谢分享!

 
雨水煮茶

回复时间:2017-11-1 11:12
感谢分享

 
胶东半岛

回复时间:2017-11-1 12:27
谢谢分享,辛苦了!

 
阿弥托佛

回复时间:2017-11-1 12:33
谢谢分享!




----------------------------------------------

佑天佑地佑人 送福送禄送寿
看经典美图到三晋!



 
lemoner

回复时间:2017-11-1 13:53
好,很好,非常好。支持你!!作者声明:本帖为本人原创,未经本人和华声论坛许可,不得转载

 
absabs278

回复时间:2017-11-1 14:30
谢谢楼主的无私奉献,辛苦了!

 
yycn21

回复时间:2017-11-1 15:51
谢谢楼主分享

 
发新帖 新投票
 回帖
查看积分策略说明快速回复主题
你的用户名: 密码:   免费注册(只要30秒)


启用 Html 代码
使用个人签名
(请您文明上网理性发言!并遵守相关规定
   



Processed in 0.026208 s, 9 q - 无图精简版,sitemap,