发新帖  新投票  回帖 
章鱼2012

发表时间:2017-11-7 13:36

车载音乐《老歌珍藏 一人一首成名曲》CD7 [WAV/CUE/320k/pp]



章鱼2012 发表在 音乐地带 华声论坛 http://bbs.voc.com.cn/forum-77-1.html


下载

**** 本内容跟帖回复才可浏览 *****

本帖助威记录

付力满 +1
老歌珍藏 一人一首!
2018-03-25 20:50:19
总计:魅力1点 助威1查看所有助威>>



----------------------------------------------
华声论坛 影音帝国 官方QQ群

影视时空|音乐地带 QQ群:140288348 128111319 42933722
音乐快递QQ群:338549863 原声地带QQ群:344590352
高品质单曲QQ群:116060792 心情音乐QQ群:154659931
心情吟诵QQ群:190584521 音乐播放器QQ群:206520165
华声论坛 有你更精彩!!
 
章鱼2012

回复时间:2017-11-7 13:36

按此在新窗口浏览图片

按此在新窗口浏览图片

按此在新窗口浏览图片





----------------------------------------------
华声论坛 影音帝国 官方QQ群

影视时空|音乐地带 QQ群:140288348 128111319 42933722
音乐快递QQ群:338549863 原声地带QQ群:344590352
高品质单曲QQ群:116060792 心情音乐QQ群:154659931
心情吟诵QQ群:190584521 音乐播放器QQ群:206520165
华声论坛 有你更精彩!!
 
章鱼2012

回复时间:2017-11-7 13:37

唱片名称:老歌珍藏 一人一首成名曲 12CD
唱片艺人:群星
出版发行:武汉音像出版社
ISRC:CN-F05-07-328-00/A.J6
原抓资源:章鱼
资源格式:WAV+CUE

唱片介绍:
精挑细选经典老歌 无限回味传唱永恒
车载音乐 汽车Hi-Fi音乐文化 享受艺术音乐生活
专为汽车音响量身定做的Hi-Fi音乐
让优美的歌声伴随你 令你在飞弛中享受近乎无暇的美妙旋律

唱片曲目CD7:


01.勇气..........................3:59
02.他不爱我......................3:55
03.有多少爱可以重来..............4:53
04.爱你十分泪七分................4:18
05.梦醒时分......................4:02
06.今夜你会不会来................4:11
07.爱情的故事....................4:45
08.朋友..........................5:08
09.我的心太乱....................4.51
10.当爱已成往事..................4:38
11.你的眼睛背叛你的心............4:27
12.每次都想呼喊你的名字..........4:27
13.我一直站在被你伤害的地方......4:11





----------------------------------------------
华声论坛 影音帝国 官方QQ群

影视时空|音乐地带 QQ群:140288348 128111319 42933722
音乐快递QQ群:338549863 原声地带QQ群:344590352
高品质单曲QQ群:116060792 心情音乐QQ群:154659931
心情吟诵QQ群:190584521 音乐播放器QQ群:206520165
华声论坛 有你更精彩!!
 
章鱼2012

回复时间:2017-11-7 13:37

按此在新窗口浏览图片
按此在新窗口浏览图片
按此在新窗口浏览图片
按此在新窗口浏览图片





----------------------------------------------
华声论坛 影音帝国 官方QQ群

影视时空|音乐地带 QQ群:140288348 128111319 42933722
音乐快递QQ群:338549863 原声地带QQ群:344590352
高品质单曲QQ群:116060792 心情音乐QQ群:154659931
心情吟诵QQ群:190584521 音乐播放器QQ群:206520165
华声论坛 有你更精彩!!
 
章鱼2012

回复时间:2017-11-7 13:38

Exact Audio Copy V0.99 prebeta 4 from 23. January 2008

EAC 抓取日志文件从4. 十月 2017, 15:03

章鱼原抓 / 老歌珍藏 一人一首成名曲 CD7

使用驱动器 :BENQ DVDROM DD18SA Adapter: 3 ID: 0

读取模式 : 保护
使用精确流 : 是
废除音频缓冲 : 是
使用 C2 指针 : 否

读取偏移校正 : 0
读取 Lead-In 和 Lead-Out : 否
用静音填充抓取中丢失偏移的采样 : 是
去除首尾静音块 : 否
在 CRC 计算中使用了空样本 : 否
已用接口 : Win NT 及 2000 本地 Win32 接口

所用输出格式 : 内部 WAV 函数
样本格式 : 44.100 Hz;16 Bit;立体声


被抓轨 CD 的 TOC

音轨 | 开始 | 长度 | 起始扇区 | 结尾扇区
--------------------------------------------------
1 | 0:00.00 | 4:02.30 | 0 | 18179
2 | 4:02.30 | 3:58.15 | 18180 | 36044
3 | 8:00.45 | 4:55.31 | 36045 | 58200
4 | 12:56.01 | 4:20.00 | 58201 | 77700
5 | 17:16.01 | 4:04.00 | 77701 | 96000
6 | 21:20.01 | 4:13.00 | 96001 | 114975
7 | 25:33.01 | 4:47.73 | 114976 | 136573
8 | 30:20.74 | 5:10.43 | 136574 | 159866
9 | 35:31.42 | 4:53.13 | 159867 | 181854
10 | 40:24.55 | 4:40.60 | 181855 | 202914
11 | 45:05.40 | 4:29.43 | 202915 | 223132
12 | 49:35.08 | 4:31.67 | 223133 | 243524
13 | 54:07.00 | 4:11.03 | 243525 | 262352


范围状态及错误

已选择范围

文件名 E:\★音乐收藏\原抓\章鱼原抓 - 老歌珍藏 一人一首成名曲 CD7.wav

峰值电平 100.0 %
范围质量 100.0 %
复制 CRC 5E1C3D1B
复制结束


没有错误发生

状态报告结尾





----------------------------------------------
华声论坛 影音帝国 官方QQ群

影视时空|音乐地带 QQ群:140288348 128111319 42933722
音乐快递QQ群:338549863 原声地带QQ群:344590352
高品质单曲QQ群:116060792 心情音乐QQ群:154659931
心情吟诵QQ群:190584521 音乐播放器QQ群:206520165
华声论坛 有你更精彩!!
 
章鱼2012

回复时间:2017-11-7 13:38

免责声明:
本专辑仅供个人试听,版权归唱片公司所有,任何人不得用于商业用途!如侵犯了你的权益请留言指出、我会在24小时内删除!





----------------------------------------------
华声论坛 影音帝国 官方QQ群

影视时空|音乐地带 QQ群:140288348 128111319 42933722
音乐快递QQ群:338549863 原声地带QQ群:344590352
高品质单曲QQ群:116060792 心情音乐QQ群:154659931
心情吟诵QQ群:190584521 音乐播放器QQ群:206520165
华声论坛 有你更精彩!!
 
zcw0686

回复时间:2017-11-7 14:39
我要全部收录

 
白桦林2016

回复时间:2017-11-7 14:49
经典收藏

 
zkj1955

回复时间:2017-11-7 14:51
精挑细选经典老歌

 
战狂99

回复时间:2017-11-7 15:02
不错,下载收藏,感谢分享

 
万厦

回复时间:2017-11-7 15:49
谢谢分享,辛苦了!

 
胶东半岛

回复时间:2017-11-7 16:55
谢谢分享,辛苦了!

 
阳光天空KTV

回复时间:2017-11-7 17:34
下来听听感谢分享。

 
dsacv

回复时间:2017-11-7 18:01
辛苦了!

 
Sam1988

回复时间:2017-11-7 19:43
谢谢分享

 
zhan988628

回复时间:2017-11-7 20:09
老歌,支持就是牛!!!

 
csq154527

回复时间:2017-11-7 21:34
谢谢章鱼版主分享经典老歌 3和4没看见啊




----------------------------------------------
戴 上 [ 耳 机 ] 、 世 界 与 我 无 关 、
 
wfl138

回复时间:2017-11-8 06:29
我要全部收录

 
lanrenyige011

回复时间:2017-11-8 06:50
谢谢楼主分享,谢谢!

 
niuzhaoxin

回复时间:2017-11-8 08:31
谢谢楼主分享

 
发新帖 新投票
 回帖
查看积分策略说明快速回复主题
你的用户名: 密码:   免费注册(只要30秒)


启用 Html 代码
使用个人签名
(请您文明上网理性发言!并遵守相关规定
   



Processed in 0.030232 s, 8 q - 无图精简版,sitemap,