发新帖  新投票  回帖 
118186个阅读者,841条回复 | 打印 | 订阅 | 收藏
章鱼2012

发表时间:2017-12-10 19:26

车载音乐《老歌珍藏 一人一首成名曲》CD9 [WAV/CUE/320k/pp]



章鱼2012 发表在 音乐地带 华声论坛 http://bbs.voc.com.cn/forum-77-1.html


下载

**** 本内容跟帖回复才可浏览 *****

本帖助威记录

临界2018 +1
美妙动听
2018-03-07 21:30:22
恋曲999 +1
你这个帖子连哑巴都能叫“绝!”
2018-02-10 02:44:36
李呯源 +1
牛!估计我这辈子再也见不到这样的帖子了
2018-01-30 11:33:23
tomqie +1
你炼得什么邪门武功发出这样的帖子?
2017-12-26 21:53:41
总计:魅力4点 助威4查看所有助威>>



----------------------------------------------
华声论坛 影音帝国 官方QQ群

影视时空|音乐地带 QQ群:140288348 128111319 42933722
音乐快递QQ群:338549863 原声地带QQ群:344590352
高品质单曲QQ群:116060792 心情音乐QQ群:154659931
心情吟诵QQ群:190584521 音乐播放器QQ群:206520165
华声论坛 有你更精彩!!
 
章鱼2012

回复时间:2017-12-10 19:27

按此在新窗口浏览图片

按此在新窗口浏览图片

按此在新窗口浏览图片





----------------------------------------------
华声论坛 影音帝国 官方QQ群

影视时空|音乐地带 QQ群:140288348 128111319 42933722
音乐快递QQ群:338549863 原声地带QQ群:344590352
高品质单曲QQ群:116060792 心情音乐QQ群:154659931
心情吟诵QQ群:190584521 音乐播放器QQ群:206520165
华声论坛 有你更精彩!!
 
章鱼2012

回复时间:2017-12-10 19:27

唱片名称:老歌珍藏 一人一首成名曲 12CD
唱片艺人:群星
出版发行:武汉音像出版社
ISRC:CN-F05-07-328-00/A.J6
原抓资源:章鱼
资源格式:WAV+CUE

唱片介绍:
精挑细选经典老歌 无限回味传唱永恒
车载音乐 汽车Hi-Fi音乐文化 享受艺术音乐生活
专为汽车音响量身定做的Hi-Fi音乐
让优美的歌声伴随你 令你在飞弛中享受近乎无暇的美妙旋律

唱片曲目CD9:


01.真情人....................4:06
02.别怕我伤心................4:46
03.我是一只小小鸟............4:38
04.伤心太平洋................4:25
05.一千零一夜................4:04
06.城里的月光................5:18
07.大哥......................4:35
08.痛苦的人..................4:35
09.出界......................4.22
10.我想有个家................5:16
11.舍不得把眼睛睁开..........4:10
12.没有情人的情人节..........4:10
13.我不想再次被情伤..........4:55





----------------------------------------------
华声论坛 影音帝国 官方QQ群

影视时空|音乐地带 QQ群:140288348 128111319 42933722
音乐快递QQ群:338549863 原声地带QQ群:344590352
高品质单曲QQ群:116060792 心情音乐QQ群:154659931
心情吟诵QQ群:190584521 音乐播放器QQ群:206520165
华声论坛 有你更精彩!!
 
章鱼2012

回复时间:2017-12-10 19:28

按此在新窗口浏览图片
按此在新窗口浏览图片
按此在新窗口浏览图片
按此在新窗口浏览图片





----------------------------------------------
华声论坛 影音帝国 官方QQ群

影视时空|音乐地带 QQ群:140288348 128111319 42933722
音乐快递QQ群:338549863 原声地带QQ群:344590352
高品质单曲QQ群:116060792 心情音乐QQ群:154659931
心情吟诵QQ群:190584521 音乐播放器QQ群:206520165
华声论坛 有你更精彩!!
 
章鱼2012

回复时间:2017-12-10 19:28

Exact Audio Copy V0.99 prebeta 4 from 23. January 2008

EAC 抓取日志文件从7. 十二月 2017, 15:16

章鱼原抓 / 老歌珍藏 一人一首成名曲CD9

使用驱动器 :BENQ DVDROM DD18SA Adapter: 3 ID: 0

读取模式 : 保护
使用精确流 : 是
废除音频缓冲 : 是
使用 C2 指针 : 否

读取偏移校正 : 0
读取 Lead-In 和 Lead-Out : 否
用静音填充抓取中丢失偏移的采样 : 是
去除首尾静音块 : 否
在 CRC 计算中使用了空样本 : 否
已用接口 : Win NT 及 2000 本地 Win32 接口

所用输出格式 : 内部 WAV 函数
样本格式 : 44.100 Hz;16 Bit;立体声


被抓轨 CD 的 TOC

音轨 | 开始 | 长度 | 起始扇区 | 结尾扇区
--------------------------------------------------
1 | 0:00.00 | 4:08.00 | 0 | 18599
2 | 4:08.00 | 4:48.00 | 18600 | 40199
3 | 8:56.00 | 4:40.21 | 40200 | 61220
4 | 13:36.21 | 4:27.44 | 61221 | 81289
5 | 18:03.65 | 4:06.63 | 81290 | 99802
6 | 22:10.53 | 5:20.17 | 99803 | 123819
7 | 27:30.70 | 4:37.50 | 123820 | 144644
8 | 32:08.45 | 4:37.67 | 144645 | 165486
9 | 36:46.37 | 4:24.46 | 165487 | 185332
10 | 41:11.08 | 5:18.08 | 185333 | 209190
11 | 46:29.16 | 4:12.31 | 209191 | 228121
12 | 50:41.47 | 4:14.47 | 228122 | 247218
13 | 54:56.19 | 4:56.71 | 247219 | 269489


范围状态及错误

已选择范围

文件名 E:\★音乐收藏\原抓\车载音乐《老歌珍藏 一人一首成名曲》CD9【wav+cue】\章鱼原抓 - 老歌珍藏 一人一首成名曲CD9.wav

峰值电平 100.0 %
范围质量 100.0 %
复制 CRC 59BE86DE
复制成功

没有错误发生

状态报告结尾





----------------------------------------------
华声论坛 影音帝国 官方QQ群

影视时空|音乐地带 QQ群:140288348 128111319 42933722
音乐快递QQ群:338549863 原声地带QQ群:344590352
高品质单曲QQ群:116060792 心情音乐QQ群:154659931
心情吟诵QQ群:190584521 音乐播放器QQ群:206520165
华声论坛 有你更精彩!!
 
章鱼2012

回复时间:2017-12-10 19:29

免责声明:
本专辑仅供个人试听,版权归唱片公司所有,任何人不得用于商业用途!如侵犯了你的权益请留言指出、我会在24小时内删除!





----------------------------------------------
华声论坛 影音帝国 官方QQ群

影视时空|音乐地带 QQ群:140288348 128111319 42933722
音乐快递QQ群:338549863 原声地带QQ群:344590352
高品质单曲QQ群:116060792 心情音乐QQ群:154659931
心情吟诵QQ群:190584521 音乐播放器QQ群:206520165
华声论坛 有你更精彩!!
 
典狱长

回复时间:2017-12-10 19:31
不是沙发的沙发欣赏平哥老大的精彩佳作

 
何来何去

回复时间:2017-12-10 20:13
谢谢。。。。。。。。。。。。。。。

 
liaoiao

回复时间:2017-12-10 20:17
喜欢

 
zkj1955

回复时间:2017-12-10 20:30
无限回味传唱永恒

 
znml

回复时间:2017-12-10 20:54
感谢楼主分享!




----------------------------------------------
 
521ssby

回复时间:2017-12-10 22:57
不错 下载了




----------------------------------------------
我草!此回复虽有且仅有两个字,但足以表达我深深的愤慨与刻骨的情感,可谓言简意赅,一字千金,字字扣人心弦,催人泪下,可见本人扎实的文字功底和信手拈来的写作技巧。再加以感叹号收尾,点睛之笔,妙笔生花,意境深远,照应前文,升华主题,把本人的情感表达的淋漓尽致,给人以无限的感动和惆怅
 
iimm66

回复时间:2017-12-11 06:16





----------------------------------------------
 
zpadsl

回复时间:2017-12-11 11:43
感谢分享!

 
叽哩呱啦哇

回复时间:2017-12-11 13:17
谢谢分享,辛苦了!

 
万厦

回复时间:2017-12-11 14:36
谢谢分享,辛苦了!

 
阿弥托佛

回复时间:2017-12-11 15:20
谢谢分享!




----------------------------------------------

佑天佑地佑人 送福送禄送寿
看经典美图到三晋!



 
wfl138

回复时间:2017-12-11 15:46
感谢楼主分享!

 
叽哩呱啦哇

回复时间:2017-12-11 17:16
CD1、CD3、CD4怎么没找到啊?楼主能补发一个吗?

 
举贤居

回复时间:2017-12-11 18:07

 
发新帖 新投票
 回帖
查看积分策略说明快速回复主题
你的用户名: 密码:   免费注册(只要30秒)


启用 Html 代码
使用个人签名
(请您文明上网理性发言!并遵守相关规定
   



Processed in 0.031507 s, 9 q - 无图精简版,sitemap,