发新帖  新投票  回帖 
106105个阅读者,822条回复 | 打印 | 订阅 | 收藏
章鱼2012

发表时间:2018-1-3 16:35

车载音乐《老歌珍藏 一人一首成名曲》CD11[WAV/CUE/320k/pp]



章鱼2012 发表在 音乐地带 华声论坛 http://bbs.voc.com.cn/forum-77-1.html



下载

**** 本内容跟帖回复才可浏览 *****

本帖助威记录

姜姜姜 +1
在浩如烟海的众多好帖中发现如此精品。本人决定签下几个大字,到此一游。
2018-02-27 08:25:49
kqdn81419 +1
天啊,这还是帖子吗?简直是神作
2018-02-18 08:58:06
飞ABC +1
看了楼主的帖,神马都是浮云
2018-02-07 09:16:18
总计:魅力3点 助威3查看所有助威>>



----------------------------------------------
华声论坛 影音帝国 官方QQ群

影视时空|音乐地带 QQ群:140288348 128111319 42933722
音乐快递QQ群:338549863 原声地带QQ群:344590352
高品质单曲QQ群:116060792 心情音乐QQ群:154659931
心情吟诵QQ群:190584521 音乐播放器QQ群:206520165
华声论坛 有你更精彩!!
 
章鱼2012

回复时间:2018-1-3 16:35

按此在新窗口浏览图片

按此在新窗口浏览图片

按此在新窗口浏览图片





----------------------------------------------
华声论坛 影音帝国 官方QQ群

影视时空|音乐地带 QQ群:140288348 128111319 42933722
音乐快递QQ群:338549863 原声地带QQ群:344590352
高品质单曲QQ群:116060792 心情音乐QQ群:154659931
心情吟诵QQ群:190584521 音乐播放器QQ群:206520165
华声论坛 有你更精彩!!
 
章鱼2012

回复时间:2018-1-3 16:35

唱片名称:老歌珍藏 一人一首成名曲 12CD
唱片艺人:群星
出版发行:武汉音像出版社
ISRC:CN-F05-07-328-00/A.J6
原抓资源:章鱼
资源格式:WAV+CUE

唱片介绍:
精挑细选经典老歌 无限回味传唱永恒
车载音乐 汽车Hi-Fi音乐文化 享受艺术音乐生活
专为汽车音响量身定做的Hi-Fi音乐
让优美的歌声伴随你 令你在飞弛中享受近乎无暇的美妙旋律

唱片曲目CD11:


01.至少还有你..................4:33
02.过火........................5:00
03.无所谓......................4:24
04.盛夏的果实..................4:08
05.星语星愿....................3:39
06.风中的承诺..................5:01
07.天涯........................4:42
08.约定........................4:17
09.太委屈......................4.48
10.移情别恋....................4:12
11.枕着你的名字入睡............5:04
12.你把我的女人带走............4:18
13.我是不是你最疼爱的人........4:04





----------------------------------------------
华声论坛 影音帝国 官方QQ群

影视时空|音乐地带 QQ群:140288348 128111319 42933722
音乐快递QQ群:338549863 原声地带QQ群:344590352
高品质单曲QQ群:116060792 心情音乐QQ群:154659931
心情吟诵QQ群:190584521 音乐播放器QQ群:206520165
华声论坛 有你更精彩!!
 
章鱼2012

回复时间:2018-1-3 16:36

按此在新窗口浏览图片
按此在新窗口浏览图片
按此在新窗口浏览图片
按此在新窗口浏览图片





----------------------------------------------
华声论坛 影音帝国 官方QQ群

影视时空|音乐地带 QQ群:140288348 128111319 42933722
音乐快递QQ群:338549863 原声地带QQ群:344590352
高品质单曲QQ群:116060792 心情音乐QQ群:154659931
心情吟诵QQ群:190584521 音乐播放器QQ群:206520165
华声论坛 有你更精彩!!
 
章鱼2012

回复时间:2018-1-3 16:36

Exact Audio Copy V0.99 prebeta 4 from 23. January 2008

EAC 抓取日志文件从7. 十二月 2017, 15:44

章鱼原抓 / 老歌珍藏 一人一首成名曲CD11

使用驱动器 :BENQ DVDROM DD18SA Adapter: 3 ID: 0

读取模式 : 保护
使用精确流 : 是
废除音频缓冲 : 是
使用 C2 指针 : 否

读取偏移校正 : 0
读取 Lead-In 和 Lead-Out : 否
用静音填充抓取中丢失偏移的采样 : 是
去除首尾静音块 : 否
在 CRC 计算中使用了空样本 : 否
已用接口 : Win NT 及 2000 本地 Win32 接口

所用输出格式 : 内部 WAV 函数
样本格式 : 44.100 Hz;16 Bit;立体声


被抓轨 CD 的 TOC

音轨 | 开始 | 长度 | 起始扇区 | 结尾扇区
--------------------------------------------------
1 | 0:00.00 | 4:35.29 | 0 | 20653
2 | 4:35.29 | 5:02.00 | 20654 | 43303
3 | 9:37.29 | 4:28.24 | 43304 | 63427
4 | 14:05.53 | 4:10.55 | 63428 | 82232
5 | 18:16.33 | 3:44.00 | 82233 | 99032
6 | 22:00.33 | 5:03.29 | 99033 | 121786
7 | 27:03.62 | 5:27.40 | 121787 | 146351
8 | 32:31.27 | 4:21.40 | 146352 | 165966
9 | 36:52.67 | 4:53.02 | 165967 | 187943
10 | 41:45.69 | 4:14.44 | 187944 | 207037
11 | 46:00.38 | 5:08.23 | 207038 | 230160
12 | 51:08.61 | 4:22.10 | 230161 | 249820
13 | 55:30.71 | 4:04.44 | 249821 | 268164


范围状态及错误

已选择范围

文件名 E:\★音乐收藏\原抓\车载音乐《老歌珍藏 一人一首成名曲》CD11【wav+cue】\章鱼原抓 - 老歌珍藏 一人一首成名曲CD11.wav

峰值电平 100.0 %
范围质量 100.0 %
复制 CRC 54564A33
复制成功

没有错误发生

状态报告结尾





----------------------------------------------
华声论坛 影音帝国 官方QQ群

影视时空|音乐地带 QQ群:140288348 128111319 42933722
音乐快递QQ群:338549863 原声地带QQ群:344590352
高品质单曲QQ群:116060792 心情音乐QQ群:154659931
心情吟诵QQ群:190584521 音乐播放器QQ群:206520165
华声论坛 有你更精彩!!
 
章鱼2012

回复时间:2018-1-3 16:36

免责声明:
本专辑仅供个人试听,版权归唱片公司所有,任何人不得用于商业用途!如侵犯了你的权益请留言指出、我会在24小时内删除!





----------------------------------------------
华声论坛 影音帝国 官方QQ群

影视时空|音乐地带 QQ群:140288348 128111319 42933722
音乐快递QQ群:338549863 原声地带QQ群:344590352
高品质单曲QQ群:116060792 心情音乐QQ群:154659931
心情吟诵QQ群:190584521 音乐播放器QQ群:206520165
华声论坛 有你更精彩!!
 
万厦

回复时间:2018-1-3 16:46
谢谢分享,辛苦了!

 
黑白2017

回复时间:2018-1-3 16:54

 
雨水煮茶

回复时间:2018-1-3 16:56
感谢分享

 
6586222

回复时间:2018-1-3 17:18
谢谢分享

 
阳光天空KTV

回复时间:2018-1-3 17:21
下来听听谢谢。

 
521ssby

回复时间:2018-1-3 17:22
感谢分享 很好




----------------------------------------------
我草!此回复虽有且仅有两个字,但足以表达我深深的愤慨与刻骨的情感,可谓言简意赅,一字千金,字字扣人心弦,催人泪下,可见本人扎实的文字功底和信手拈来的写作技巧。再加以感叹号收尾,点睛之笔,妙笔生花,意境深远,照应前文,升华主题,把本人的情感表达的淋漓尽致,给人以无限的感动和惆怅
 
btxbjh

回复时间:2018-1-3 17:35
谢谢分享

 
春恋雪

回复时间:2018-1-3 17:45
谢谢好音乐

 
小牮

回复时间:2018-1-3 17:49
谢谢分享

 
cyh814

回复时间:2018-1-3 17:56
经典中的经典。

 
想肉非非

回复时间:2018-1-3 18:32
.枕着你的名字入睡

 
批判爱听者2013z

回复时间:2018-1-3 19:16
谢谢

 
chechengjun

回复时间:2018-1-3 19:17
谢谢分享!

 
lemoner

回复时间:2018-1-3 20:25
实在是经典的盘,一定支持。谢谢楼主。我下载了。作者声明:本帖为本人原创,未经本人和华声论坛许可,不得转载

 
发新帖 新投票
 回帖
查看积分策略说明快速回复主题
你的用户名: 密码:   免费注册(只要30秒)


启用 Html 代码
使用个人签名
(请您文明上网理性发言!并遵守相关规定
   



Processed in 0.027852 s, 9 q - 无图精简版,sitemap,