发新帖  新投票  回帖 
76238个阅读者,356条回复 | 打印 | 订阅 | 收藏
梦回云阳

发表时间:2018-1-14 15:44

【梦回云阳与您有约】群星·无尘CDA【WAV+CUE/百度网盘】   



梦回云阳 发表在 音乐地带 华声论坛 http://bbs.voc.com.cn/forum-77-1.html










下载测试资源
**** 本内容跟帖回复才可浏览 *****


本帖助威记录

满地找牙888 +1
天啊,这还是帖子吗?简直是神作
2018-04-17 15:57:42
wpuyang +1
感谢老天,感谢神仙姐姐让我看到这么好的帖子
2018-04-10 11:50:31
付力满 +1
能够在如此精彩的帖子留下自己的网名是多么骄傲的一件事啊
2018-03-12 21:40:05
总计:魅力3点 助威3查看所有助威>>



----------------------------------------------
友情提醒:下载测试资源存放于免费网盘,不保证资源的长期有效;若有任何一方主张版权,请各管管或版版直接删除本帖,不用任何形式的通知我本人,谢谢。

华声论坛 影音帝国 官方QQ群
影视时空|音乐地带 QQ群:140288348 128111319 42933722
音乐快递QQ群:338549863 原声地带QQ群:344590352
高品质单曲QQ群:116060792 心情音乐QQ群:154659931
心情吟诵QQ群:190584521 音乐播放器QQ群:206520165
 
梦回云阳

回复时间:2018-1-14 15:45

专辑名称:无尘CDA
专辑艺人:群星
资源格式:WAV


专辑介绍:
纯静人声与高雅佛乐的结合,聆听心灵新境界,一尘不染的新世纪音乐,触动人心底处的灵魂音乐。

专辑曲目:
01.用心感受
02.明亮
03.清尘
04.心灵渴望
05.爱之歌
06.光芒
07.光明在望
08.玻璃光
09.感恩之光
10.永恒之光





----------------------------------------------
友情提醒:下载测试资源存放于免费网盘,不保证资源的长期有效;若有任何一方主张版权,请各管管或版版直接删除本帖,不用任何形式的通知我本人,谢谢。

华声论坛 影音帝国 官方QQ群
影视时空|音乐地带 QQ群:140288348 128111319 42933722
音乐快递QQ群:338549863 原声地带QQ群:344590352
高品质单曲QQ群:116060792 心情音乐QQ群:154659931
心情吟诵QQ群:190584521 音乐播放器QQ群:206520165
 
梦回云阳

回复时间:2018-1-14 15:45

按此在新窗口浏览图片





----------------------------------------------
友情提醒:下载测试资源存放于免费网盘,不保证资源的长期有效;若有任何一方主张版权,请各管管或版版直接删除本帖,不用任何形式的通知我本人,谢谢。

华声论坛 影音帝国 官方QQ群
影视时空|音乐地带 QQ群:140288348 128111319 42933722
音乐快递QQ群:338549863 原声地带QQ群:344590352
高品质单曲QQ群:116060792 心情音乐QQ群:154659931
心情吟诵QQ群:190584521 音乐播放器QQ群:206520165
 
梦回云阳

回复时间:2018-1-14 15:46

按此在新窗口浏览图片





----------------------------------------------
友情提醒:下载测试资源存放于免费网盘,不保证资源的长期有效;若有任何一方主张版权,请各管管或版版直接删除本帖,不用任何形式的通知我本人,谢谢。

华声论坛 影音帝国 官方QQ群
影视时空|音乐地带 QQ群:140288348 128111319 42933722
音乐快递QQ群:338549863 原声地带QQ群:344590352
高品质单曲QQ群:116060792 心情音乐QQ群:154659931
心情吟诵QQ群:190584521 音乐播放器QQ群:206520165
 
梦回云阳

回复时间:2018-1-14 15:47

抓轨前检测:

按此在新窗口浏览图片


按此在新窗口浏览图片


按此在新窗口浏览图片





----------------------------------------------
友情提醒:下载测试资源存放于免费网盘,不保证资源的长期有效;若有任何一方主张版权,请各管管或版版直接删除本帖,不用任何形式的通知我本人,谢谢。

华声论坛 影音帝国 官方QQ群
影视时空|音乐地带 QQ群:140288348 128111319 42933722
音乐快递QQ群:338549863 原声地带QQ群:344590352
高品质单曲QQ群:116060792 心情音乐QQ群:154659931
心情吟诵QQ群:190584521 音乐播放器QQ群:206520165
 
梦回云阳

回复时间:2018-1-14 15:48
EAC 抓取日志文件


Exact Audio Copy V0.99 prebeta 4 from 23. January 2008

EAC 抓取日志文件从13. 一月 2018, 13:34

群星 / 无尘CDA

使用驱动器 :MATSHITADVD-RAM UJ8E0 Adapter: 0 ID: 0

读取模式 : 保护
使用精确流 : 是
废除音频缓冲 : 否
使用 C2 指针 : 否

组合读/写偏移校正 : 0
读取 Lead-In 和 Lead-Out : 否
用静音填充抓取中丢失偏移的采样 : 是
去除首尾静音块 : 否
在 CRC 计算中使用了空样本 : 否
已用接口 : Win NT 及 2000 本地 Win32 接口

所用输出格式 : 内部 WAV 函数
样本格式 : 44.100 Hz;16 Bit;立体声


被抓轨 CD 的 TOC

音轨 | 开始 | 长度 | 起始扇区 | 结尾扇区
--------------------------------------------------
1 | 0:00.00 | 5:48.27 | 0 | 26126
2 | 5:48.27 | 5:57.52 | 26127 | 52953
3 | 11:46.04 | 5:52.22 | 52954 | 79375
4 | 17:38.26 | 5:11.57 | 79376 | 102757
5 | 22:50.08 | 5:15.61 | 102758 | 126443
6 | 28:05.69 | 5:11.22 | 126444 | 149790
7 | 33:17.16 | 6:32.10 | 149791 | 179200
8 | 39:49.26 | 4:49.35 | 179201 | 200910
9 | 44:38.61 | 4:37.60 | 200911 | 221745
10 | 49:16.46 | 4:45.68 | 221746 | 243188


范围状态及错误

已选择范围

文件名 F:\音频抓轨\群星 - 无尘CDA.wav

峰值电平 96.6 %
范围质量 100.0 %
复制 CRC FBDB4896
复制成功

没有错误发生

状态报告结尾




----------------------------------------------
友情提醒:下载测试资源存放于免费网盘,不保证资源的长期有效;若有任何一方主张版权,请各管管或版版直接删除本帖,不用任何形式的通知我本人,谢谢。

华声论坛 影音帝国 官方QQ群
影视时空|音乐地带 QQ群:140288348 128111319 42933722
音乐快递QQ群:338549863 原声地带QQ群:344590352
高品质单曲QQ群:116060792 心情音乐QQ群:154659931
心情吟诵QQ群:190584521 音乐播放器QQ群:206520165
 
梦回云阳

回复时间:2018-1-14 15:48
所有音乐仅供测试及试听,音乐版权归原唱片公司所有,任何人不得用于商业用途!




----------------------------------------------
友情提醒:下载测试资源存放于免费网盘,不保证资源的长期有效;若有任何一方主张版权,请各管管或版版直接删除本帖,不用任何形式的通知我本人,谢谢。

华声论坛 影音帝国 官方QQ群
影视时空|音乐地带 QQ群:140288348 128111319 42933722
音乐快递QQ群:338549863 原声地带QQ群:344590352
高品质单曲QQ群:116060792 心情音乐QQ群:154659931
心情吟诵QQ群:190584521 音乐播放器QQ群:206520165
 
zjlxqzq

回复时间:2018-1-14 17:21
谢谢分享




----------------------------------------------
 
csq154527

回复时间:2018-1-14 17:27
谢谢云阳版主分享




----------------------------------------------
戴 上 [ 耳 机 ] 、 世 界 与 我 无 关 、
 
郑志辉

回复时间:2018-1-14 18:24
好多谢分享听!

 
hgheblifeng

回复时间:2018-1-14 19:14
谢谢楼主

 
沙洲海洋

回复时间:2018-1-14 20:13

 
longshi5

回复时间:2018-1-14 21:34
谢谢版主的分享

 
雪之松2016

回复时间:2018-1-14 22:08
谢谢楼主

 
大朗人

回复时间:2018-1-14 23:37
谢谢分享

 
花醉满堂客

回复时间:2018-1-15 07:12
谢谢分享!

 
偶然833

回复时间:2018-1-15 07:21
好多谢分享听!

 
shanfenglinshu

回复时间:2018-1-15 07:32
很不错的专辑,谢谢分享

 
黄世仁2014

回复时间:2018-1-15 07:42
感谢楼主分享

 
hgdjlsx

回复时间:2018-1-15 08:03
谢谢分享好歌曲

 
发新帖 新投票
 回帖
查看积分策略说明快速回复主题
你的用户名: 密码:   免费注册(只要30秒)


启用 Html 代码
使用个人签名
(请您文明上网理性发言!并遵守相关规定
   



Processed in 0.024802 s, 9 q - 无图精简版,sitemap,