发新帖  新投票  回帖 
96518个阅读者,778条回复 | 打印 | 订阅 | 收藏
章鱼2012

发表时间:2018-1-15 15:17

车载音乐《老歌珍藏 一人一首成名曲》CD12[WAV/CUE/320k/pp]



章鱼2012 发表在 音乐地带 华声论坛 http://bbs.voc.com.cn/forum-77-1.html


下载
**** 本内容跟帖回复才可浏览 *****

本帖助威记录

姜姜姜 +1
这是帖子?我揉揉眼
2018-02-27 08:22:25
恋曲999 +1
情歌还是老的好,经典回忆
2018-02-09 08:59:30
lanshede1188 +1
感谢老天,感谢神仙姐姐让我看到这么好的帖子
2018-01-28 23:54:40
日月星辰a +1
你的帖子可以上新闻联播了
2018-01-15 17:58:57
总计:魅力4点 助威4查看所有助威>>



----------------------------------------------
华声论坛 影音帝国 官方QQ群

影视时空|音乐地带 QQ群:140288348 128111319 42933722
音乐快递QQ群:338549863 原声地带QQ群:344590352
高品质单曲QQ群:116060792 心情音乐QQ群:154659931
心情吟诵QQ群:190584521 音乐播放器QQ群:206520165
华声论坛 有你更精彩!!
 
章鱼2012

回复时间:2018-1-15 15:17

按此在新窗口浏览图片

按此在新窗口浏览图片

按此在新窗口浏览图片





----------------------------------------------
华声论坛 影音帝国 官方QQ群

影视时空|音乐地带 QQ群:140288348 128111319 42933722
音乐快递QQ群:338549863 原声地带QQ群:344590352
高品质单曲QQ群:116060792 心情音乐QQ群:154659931
心情吟诵QQ群:190584521 音乐播放器QQ群:206520165
华声论坛 有你更精彩!!
 
章鱼2012

回复时间:2018-1-15 15:17

唱片名称:老歌珍藏 一人一首成名曲 12CD
唱片艺人:群星
出版发行:武汉音像出版社
ISRC:CN-F05-07-328-00/A.J6
原抓资源:章鱼
资源格式:WAV+CUE

唱片介绍:
精挑细选经典老歌 无限回味传唱永恒
车载音乐 汽车Hi-Fi音乐文化 享受艺术音乐生活
专为汽车音响量身定做的Hi-Fi音乐
让优美的歌声伴随你 令你在飞弛中享受近乎无暇的美妙旋律

唱片曲目CD12:


01.一言难尽....................4:10
02.心要让你听见................4:25
03.我的未来不是梦..............5:08
04.一笑而过....................4:33
05.黄昏........................5:41
06.回家........................4:59
07.新不了情....................4:25
08.孤枕难眠....................4:12
09.童年........................3.52
10.玻璃心......................4:48
11.我要找到你..................4:11
12.月亮代表我的心..............3:31
13.不让我的眼泪陪我过夜........4:30





----------------------------------------------
华声论坛 影音帝国 官方QQ群

影视时空|音乐地带 QQ群:140288348 128111319 42933722
音乐快递QQ群:338549863 原声地带QQ群:344590352
高品质单曲QQ群:116060792 心情音乐QQ群:154659931
心情吟诵QQ群:190584521 音乐播放器QQ群:206520165
华声论坛 有你更精彩!!
 
章鱼2012

回复时间:2018-1-15 15:18

按此在新窗口浏览图片
按此在新窗口浏览图片
按此在新窗口浏览图片
按此在新窗口浏览图片





----------------------------------------------
华声论坛 影音帝国 官方QQ群

影视时空|音乐地带 QQ群:140288348 128111319 42933722
音乐快递QQ群:338549863 原声地带QQ群:344590352
高品质单曲QQ群:116060792 心情音乐QQ群:154659931
心情吟诵QQ群:190584521 音乐播放器QQ群:206520165
华声论坛 有你更精彩!!
 
章鱼2012

回复时间:2018-1-15 15:18

Exact Audio Copy V0.99 prebeta 4 from 23. January 2008

EAC 抓取日志文件从7. 十二月 2017, 15:58

章鱼原抓 / 老歌珍藏 一人一首成名曲CD12

使用驱动器 :BENQ DVDROM DD18SA Adapter: 3 ID: 0

读取模式 : 保护
使用精确流 : 是
废除音频缓冲 : 是
使用 C2 指针 : 否

读取偏移校正 : 0
读取 Lead-In 和 Lead-Out : 否
用静音填充抓取中丢失偏移的采样 : 是
去除首尾静音块 : 否
在 CRC 计算中使用了空样本 : 否
已用接口 : Win NT 及 2000 本地 Win32 接口

所用输出格式 : 内部 WAV 函数
样本格式 : 44.100 Hz;16 Bit;立体声


被抓轨 CD 的 TOC

音轨 | 开始 | 长度 | 起始扇区 | 结尾扇区
--------------------------------------------------
1 | 0:00.00 | 4:14.12 | 0 | 19061
2 | 4:14.12 | 4:27.44 | 19062 | 39130
3 | 8:41.56 | 5:10.49 | 39131 | 62429
4 | 13:52.30 | 4:35.51 | 62430 | 83105
5 | 18:28.06 | 5:43.41 | 83106 | 108871
6 | 24:11.47 | 5:01.26 | 108872 | 131472
7 | 29:12.73 | 4:27.68 | 131473 | 151565
8 | 33:40.66 | 4:14.65 | 151566 | 170680
9 | 37:55.56 | 3:54.59 | 170681 | 188289
10 | 41:50.40 | 4:51.73 | 188290 | 210187
11 | 46:42.38 | 4:13.74 | 210188 | 229236
12 | 50:56.37 | 3:32.56 | 229237 | 245192
13 | 54:29.18 | 4:30.00 | 245193 | 265442


范围状态及错误

已选择范围

文件名 E:\★音乐收藏\原抓\车载音乐《老歌珍藏 一人一首成名曲》CD12【wav+cue】\章鱼原抓 - 老歌珍藏 一人一首成名曲CD12.wav

峰值电平 100.0 %
范围质量 100.0 %
复制 CRC 902AD53E
复制成功

没有错误发生

状态报告结尾





----------------------------------------------
华声论坛 影音帝国 官方QQ群

影视时空|音乐地带 QQ群:140288348 128111319 42933722
音乐快递QQ群:338549863 原声地带QQ群:344590352
高品质单曲QQ群:116060792 心情音乐QQ群:154659931
心情吟诵QQ群:190584521 音乐播放器QQ群:206520165
华声论坛 有你更精彩!!
 
章鱼2012

回复时间:2018-1-15 15:19

免责声明:
本专辑仅供个人试听,版权归唱片公司所有,任何人不得用于商业用途!如侵犯了你的权益请留言指出、我会在24小时内删除!





----------------------------------------------
华声论坛 影音帝国 官方QQ群

影视时空|音乐地带 QQ群:140288348 128111319 42933722
音乐快递QQ群:338549863 原声地带QQ群:344590352
高品质单曲QQ群:116060792 心情音乐QQ群:154659931
心情吟诵QQ群:190584521 音乐播放器QQ群:206520165
华声论坛 有你更精彩!!
 
章鱼2012

回复时间:2018-1-15 15:23




----------------------------------------------
华声论坛 影音帝国 官方QQ群

影视时空|音乐地带 QQ群:140288348 128111319 42933722
音乐快递QQ群:338549863 原声地带QQ群:344590352
高品质单曲QQ群:116060792 心情音乐QQ群:154659931
心情吟诵QQ群:190584521 音乐播放器QQ群:206520165
华声论坛 有你更精彩!!
 
zkj1955

回复时间:2018-1-15 16:46
无限回味传唱永恒

 
cxrfjfq2008

回复时间:2018-1-15 17:01
无限回味传唱永恒

 
521ssby

回复时间:2018-1-15 17:49
不错 收下了




----------------------------------------------
我草!此回复虽有且仅有两个字,但足以表达我深深的愤慨与刻骨的情感,可谓言简意赅,一字千金,字字扣人心弦,催人泪下,可见本人扎实的文字功底和信手拈来的写作技巧。再加以感叹号收尾,点睛之笔,妙笔生花,意境深远,照应前文,升华主题,把本人的情感表达的淋漓尽致,给人以无限的感动和惆怅
 
日月星辰a

回复时间:2018-1-15 17:58
好听

 
lzrlzrlzrlzr

回复时间:2018-1-15 18:02
找到啦,真好!!!!




----------------------------------------------
喜欢高品质的
 
花醉满堂客

回复时间:2018-1-15 19:15
谢谢分享

 
花醉满堂客

回复时间:2018-1-15 19:15
谢谢分享

 
mimigigi

回复时间:2018-1-15 20:50
谢谢分享

 
kmzwq

回复时间:2018-1-15 21:28
无限回味传唱永恒

 
bearxya

回复时间:2018-1-15 22:18
楼主辛苦了,多谢分享好歌碟!

 
john2fa

回复时间:2018-1-15 23:09
感谢分享

 
whlsw86

回复时间:2018-1-16 06:59
谢谢楼主提供的分享!

 
yycn21

回复时间:2018-1-16 09:06
无限回味传唱永恒

 
发新帖 新投票
 回帖
查看积分策略说明快速回复主题
你的用户名: 密码:   免费注册(只要30秒)


启用 Html 代码
使用个人签名
(请您文明上网理性发言!并遵守相关规定
   



Processed in 0.034417 s, 9 q - 无图精简版,sitemap,