发新帖  新投票  回帖 
55453个阅读者,233条回复 | 打印 | 订阅 | 收藏
梦回云阳

发表时间:2018-1-30 20:31

【梦回云阳与您有约】群星·无尘CDC【WAV+CUE/百度网盘】   



梦回云阳 发表在 音乐地带 华声论坛 http://bbs.voc.com.cn/forum-77-1.html










下载测试资源
**** 本内容跟帖回复才可浏览 *****


本帖助威记录

付力满 +1
比这精彩的帖子还有木有
2018-03-12 21:41:43
总计:魅力1点 助威1查看所有助威>>



----------------------------------------------
友情提醒:下载测试资源存放于免费网盘,不保证资源的长期有效;若有任何一方主张版权,请各管管或版版直接删除本帖,不用任何形式的通知我本人,谢谢。

华声论坛 影音帝国 官方QQ群
影视时空|音乐地带 QQ群:140288348 128111319 42933722
音乐快递QQ群:338549863 原声地带QQ群:344590352
高品质单曲QQ群:116060792 心情音乐QQ群:154659931
心情吟诵QQ群:190584521 音乐播放器QQ群:206520165
 
梦回云阳

回复时间:2018-1-30 20:31

按此在新窗口浏览图片





----------------------------------------------
友情提醒:下载测试资源存放于免费网盘,不保证资源的长期有效;若有任何一方主张版权,请各管管或版版直接删除本帖,不用任何形式的通知我本人,谢谢。

华声论坛 影音帝国 官方QQ群
影视时空|音乐地带 QQ群:140288348 128111319 42933722
音乐快递QQ群:338549863 原声地带QQ群:344590352
高品质单曲QQ群:116060792 心情音乐QQ群:154659931
心情吟诵QQ群:190584521 音乐播放器QQ群:206520165
 
梦回云阳

回复时间:2018-1-30 20:32

按此在新窗口浏览图片





----------------------------------------------
友情提醒:下载测试资源存放于免费网盘,不保证资源的长期有效;若有任何一方主张版权,请各管管或版版直接删除本帖,不用任何形式的通知我本人,谢谢。

华声论坛 影音帝国 官方QQ群
影视时空|音乐地带 QQ群:140288348 128111319 42933722
音乐快递QQ群:338549863 原声地带QQ群:344590352
高品质单曲QQ群:116060792 心情音乐QQ群:154659931
心情吟诵QQ群:190584521 音乐播放器QQ群:206520165
 
梦回云阳

回复时间:2018-1-30 20:32

按此在新窗口浏览图片





----------------------------------------------
友情提醒:下载测试资源存放于免费网盘,不保证资源的长期有效;若有任何一方主张版权,请各管管或版版直接删除本帖,不用任何形式的通知我本人,谢谢。

华声论坛 影音帝国 官方QQ群
影视时空|音乐地带 QQ群:140288348 128111319 42933722
音乐快递QQ群:338549863 原声地带QQ群:344590352
高品质单曲QQ群:116060792 心情音乐QQ群:154659931
心情吟诵QQ群:190584521 音乐播放器QQ群:206520165
 
梦回云阳

回复时间:2018-1-30 20:33

专辑名称:无尘CDC
专辑艺人:群星
资源格式:WAV


专辑介绍:
纯静人声与高雅佛乐的结合,聆听心灵新境界,一尘不染的新世纪音乐,触动人心底处的灵魂音乐。

专辑曲目:
01.炽盛光明
02.诚心
03.慈航
04.大慈大悲
05.自在欢喜
06.心灵之歌
07.真挚
08.灵魂深处
09.一颗水晶
10.缘定





----------------------------------------------
友情提醒:下载测试资源存放于免费网盘,不保证资源的长期有效;若有任何一方主张版权,请各管管或版版直接删除本帖,不用任何形式的通知我本人,谢谢。

华声论坛 影音帝国 官方QQ群
影视时空|音乐地带 QQ群:140288348 128111319 42933722
音乐快递QQ群:338549863 原声地带QQ群:344590352
高品质单曲QQ群:116060792 心情音乐QQ群:154659931
心情吟诵QQ群:190584521 音乐播放器QQ群:206520165
 
梦回云阳

回复时间:2018-1-30 20:34

抓轨前检测

按此在新窗口浏览图片


按此在新窗口浏览图片


按此在新窗口浏览图片





----------------------------------------------
友情提醒:下载测试资源存放于免费网盘,不保证资源的长期有效;若有任何一方主张版权,请各管管或版版直接删除本帖,不用任何形式的通知我本人,谢谢。

华声论坛 影音帝国 官方QQ群
影视时空|音乐地带 QQ群:140288348 128111319 42933722
音乐快递QQ群:338549863 原声地带QQ群:344590352
高品质单曲QQ群:116060792 心情音乐QQ群:154659931
心情吟诵QQ群:190584521 音乐播放器QQ群:206520165
 
梦回云阳

回复时间:2018-1-30 20:35
EAC 抓取日志文件

Exact Audio Copy V0.99 prebeta 4 from 23. January 2008

EAC 抓取日志文件从14. 一月 2018, 11:05

群星 / 无尘CDC

使用驱动器 :MATSHITADVD-RAM UJ8E0 Adapter: 0 ID: 0

读取模式 : 保护
使用精确流 : 是
废除音频缓冲 : 否
使用 C2 指针 : 否

组合读/写偏移校正 : 0
读取 Lead-In 和 Lead-Out : 否
用静音填充抓取中丢失偏移的采样 : 是
去除首尾静音块 : 否
在 CRC 计算中使用了空样本 : 否
已用接口 : Win NT 及 2000 本地 Win32 接口

所用输出格式 : 内部 WAV 函数
样本格式 : 44.100 Hz;16 Bit;立体声


被抓轨 CD 的 TOC

音轨 | 开始 | 长度 | 起始扇区 | 结尾扇区
--------------------------------------------------
1 | 0:00.00 | 5:15.21 | 0 | 23645
2 | 5:15.21 | 4:16.47 | 23646 | 42892
3 | 9:31.68 | 6:32.27 | 42893 | 72319
4 | 16:04.20 | 5:44.08 | 72320 | 98127
5 | 21:48.28 | 5:51.48 | 98128 | 124500
6 | 27:40.01 | 4:09.41 | 124501 | 143216
7 | 31:49.42 | 6:12.68 | 143217 | 171184
8 | 38:02.35 | 4:46.47 | 171185 | 192681
9 | 42:49.07 | 4:18.02 | 192682 | 212033
10 | 47:07.09 | 5:08.39 | 212034 | 235172


范围状态及错误

已选择范围

文件名 F:\音频抓轨\群星 - 无尘CDC.wav

峰值电平 99.9 %
范围质量 100.0 %
复制 CRC EF9A4940
复制成功

没有错误发生

状态报告结尾




----------------------------------------------
友情提醒:下载测试资源存放于免费网盘,不保证资源的长期有效;若有任何一方主张版权,请各管管或版版直接删除本帖,不用任何形式的通知我本人,谢谢。

华声论坛 影音帝国 官方QQ群
影视时空|音乐地带 QQ群:140288348 128111319 42933722
音乐快递QQ群:338549863 原声地带QQ群:344590352
高品质单曲QQ群:116060792 心情音乐QQ群:154659931
心情吟诵QQ群:190584521 音乐播放器QQ群:206520165
 
梦回云阳

回复时间:2018-1-30 20:35
所有音乐仅供测试及试听,音乐版权归原唱片公司所有,任何人不得用于商业用途!




----------------------------------------------
友情提醒:下载测试资源存放于免费网盘,不保证资源的长期有效;若有任何一方主张版权,请各管管或版版直接删除本帖,不用任何形式的通知我本人,谢谢。

华声论坛 影音帝国 官方QQ群
影视时空|音乐地带 QQ群:140288348 128111319 42933722
音乐快递QQ群:338549863 原声地带QQ群:344590352
高品质单曲QQ群:116060792 心情音乐QQ群:154659931
心情吟诵QQ群:190584521 音乐播放器QQ群:206520165
 
wen88

回复时间:2018-1-30 22:29
不能试听吗???????????

 
iimm66

回复时间:2018-1-31 06:12
[newem23.9




----------------------------------------------
 
whlsw86

回复时间:2018-1-31 07:05
谢谢楼主提供的分享!

 
hgdjlsx

回复时间:2018-1-31 07:59
听听好听的歌曲。谢谢

 
jinxwei

回复时间:2018-1-31 09:37
谢谢分享

 
qiqi8007

回复时间:2018-1-31 09:39
谢谢分享。

 
csq154527

回复时间:2018-1-31 09:40
谢谢云阳版主分享




----------------------------------------------
戴 上 [ 耳 机 ] 、 世 界 与 我 无 关 、
 
lufeng1968

回复时间:2018-1-31 10:13
谢谢楼主分享

 
自然风abc

回复时间:2018-1-31 10:17
谢谢分享




----------------------------------------------
 
雨水煮茶

回复时间:2018-1-31 10:18
感谢分享

 
风起大漠

回复时间:2018-1-31 10:23
谢谢分享.




----------------------------------------------
一叶一菩提
 
8210766

回复时间:2018-1-31 11:03
谢谢分享

 
发新帖 新投票
 回帖
查看积分策略说明快速回复主题
你的用户名: 密码:   免费注册(只要30秒)


启用 Html 代码
使用个人签名
(请您文明上网理性发言!并遵守相关规定
   



Processed in 0.029368 s, 9 q - 无图精简版,sitemap,