发新帖  新投票  回帖 
55336个阅读者,257条回复 | 打印 | 订阅 | 收藏
梦回云阳

发表时间:2018-2-6 21:01

【梦回云阳与您有约】群星·无尘CDD【WAV+CUE/百度网盘】



梦回云阳 发表在 音乐地带 华声论坛 http://bbs.voc.com.cn/forum-77-1.html










下载测试资源
**** 本内容跟帖回复才可浏览 *****


本帖助威记录

小果树 +1
在浩如烟海的众多好帖中发现如此精品。本人决定签下几个大字,到此一游。
2018-08-30 16:26:50
飞翔2989 +1
你的帖子可以上新闻联播了
2018-04-24 21:51:07
付力满 +1
比这精彩的帖子还有木有
2018-03-12 21:44:39
总计:魅力3点 助威3查看所有助威>>



----------------------------------------------
友情提醒:下载测试资源存放于免费网盘,不保证资源的长期有效;若有任何一方主张版权,请各管管或版版直接删除本帖,不用任何形式的通知我本人,谢谢。

华声论坛 影音帝国 官方QQ群
影视时空|音乐地带 QQ群:140288348 128111319 42933722
音乐快递QQ群:338549863 原声地带QQ群:344590352
高品质单曲QQ群:116060792 心情音乐QQ群:154659931
心情吟诵QQ群:190584521 音乐播放器QQ群:206520165
 
梦回云阳

回复时间:2018-2-6 21:02

专辑名称:无尘CDD
专辑艺人:群星
资源格式:WAV


专辑介绍:
纯静人声与高雅佛乐的结合,聆听心灵新境界,一尘不染的新世纪音乐,触动人心底处的灵魂音乐。

专辑曲目:
01.聆听
02.光明普照
03.甘露
04.无言的喜悦
05.向往
06.与你相伴
07.依靠
08.情缘
09.祈求
10.禅院钟声
11.清净心





----------------------------------------------
友情提醒:下载测试资源存放于免费网盘,不保证资源的长期有效;若有任何一方主张版权,请各管管或版版直接删除本帖,不用任何形式的通知我本人,谢谢。

华声论坛 影音帝国 官方QQ群
影视时空|音乐地带 QQ群:140288348 128111319 42933722
音乐快递QQ群:338549863 原声地带QQ群:344590352
高品质单曲QQ群:116060792 心情音乐QQ群:154659931
心情吟诵QQ群:190584521 音乐播放器QQ群:206520165
 
梦回云阳

回复时间:2018-2-6 21:02

按此在新窗口浏览图片





----------------------------------------------
友情提醒:下载测试资源存放于免费网盘,不保证资源的长期有效;若有任何一方主张版权,请各管管或版版直接删除本帖,不用任何形式的通知我本人,谢谢。

华声论坛 影音帝国 官方QQ群
影视时空|音乐地带 QQ群:140288348 128111319 42933722
音乐快递QQ群:338549863 原声地带QQ群:344590352
高品质单曲QQ群:116060792 心情音乐QQ群:154659931
心情吟诵QQ群:190584521 音乐播放器QQ群:206520165
 
梦回云阳

回复时间:2018-2-6 21:03

按此在新窗口浏览图片





----------------------------------------------
友情提醒:下载测试资源存放于免费网盘,不保证资源的长期有效;若有任何一方主张版权,请各管管或版版直接删除本帖,不用任何形式的通知我本人,谢谢。

华声论坛 影音帝国 官方QQ群
影视时空|音乐地带 QQ群:140288348 128111319 42933722
音乐快递QQ群:338549863 原声地带QQ群:344590352
高品质单曲QQ群:116060792 心情音乐QQ群:154659931
心情吟诵QQ群:190584521 音乐播放器QQ群:206520165
 
梦回云阳

回复时间:2018-2-6 21:04

抓轨前检测

按此在新窗口浏览图片


按此在新窗口浏览图片


按此在新窗口浏览图片





----------------------------------------------
友情提醒:下载测试资源存放于免费网盘,不保证资源的长期有效;若有任何一方主张版权,请各管管或版版直接删除本帖,不用任何形式的通知我本人,谢谢。

华声论坛 影音帝国 官方QQ群
影视时空|音乐地带 QQ群:140288348 128111319 42933722
音乐快递QQ群:338549863 原声地带QQ群:344590352
高品质单曲QQ群:116060792 心情音乐QQ群:154659931
心情吟诵QQ群:190584521 音乐播放器QQ群:206520165
 
梦回云阳

回复时间:2018-2-6 21:05
EAC 抓取日志文件


Exact Audio Copy V0.99 prebeta 4 from 23. January 2008

EAC 抓取日志文件从14. 一月 2018, 14:17

群星 / 无尘CDD

使用驱动器 :MATSHITADVD-RAM UJ8E0 Adapter: 0 ID: 0

读取模式 : 保护
使用精确流 : 是
废除音频缓冲 : 否
使用 C2 指针 : 否

组合读/写偏移校正 : 0
读取 Lead-In 和 Lead-Out : 否
用静音填充抓取中丢失偏移的采样 : 是
去除首尾静音块 : 否
在 CRC 计算中使用了空样本 : 否
已用接口 : Win NT 及 2000 本地 Win32 接口

所用输出格式 : 内部 WAV 函数
样本格式 : 44.100 Hz;16 Bit;立体声


被抓轨 CD 的 TOC

音轨 | 开始 | 长度 | 起始扇区 | 结尾扇区
--------------------------------------------------
1 | 0:00.00 | 4:38.18 | 0 | 20867
2 | 4:38.18 | 5:19.14 | 20868 | 44806
3 | 9:57.32 | 6:50.43 | 44807 | 75599
4 | 16:48.00 | 4:49.26 | 75600 | 97300
5 | 21:37.26 | 6:13.05 | 97301 | 125280
6 | 27:50.31 | 5:41.73 | 125281 | 150928
7 | 33:32.29 | 4:42.20 | 150929 | 172098
8 | 38:14.49 | 4:43.44 | 172099 | 193367
9 | 42:58.18 | 7:43.72 | 193368 | 228164
10 | 50:42.15 | 6:48.38 | 228165 | 258802
11 | 57:30.53 | 4:05.09 | 258803 | 277186


范围状态及错误

已选择范围

文件名 F:\音频抓轨\群星 - 无尘CDD.wav

峰值电平 99.9 %
范围质量 100.0 %
复制 CRC D9B819E3
复制成功

没有错误发生

状态报告结尾




----------------------------------------------
友情提醒:下载测试资源存放于免费网盘,不保证资源的长期有效;若有任何一方主张版权,请各管管或版版直接删除本帖,不用任何形式的通知我本人,谢谢。

华声论坛 影音帝国 官方QQ群
影视时空|音乐地带 QQ群:140288348 128111319 42933722
音乐快递QQ群:338549863 原声地带QQ群:344590352
高品质单曲QQ群:116060792 心情音乐QQ群:154659931
心情吟诵QQ群:190584521 音乐播放器QQ群:206520165
 
梦回云阳

回复时间:2018-2-6 21:05
所有音乐仅供测试及试听,音乐版权归原唱片公司所有,任何人不得用于商业用途!




----------------------------------------------
友情提醒:下载测试资源存放于免费网盘,不保证资源的长期有效;若有任何一方主张版权,请各管管或版版直接删除本帖,不用任何形式的通知我本人,谢谢。

华声论坛 影音帝国 官方QQ群
影视时空|音乐地带 QQ群:140288348 128111319 42933722
音乐快递QQ群:338549863 原声地带QQ群:344590352
高品质单曲QQ群:116060792 心情音乐QQ群:154659931
心情吟诵QQ群:190584521 音乐播放器QQ群:206520165
 
雪之松2016

回复时间:2018-2-6 21:22
谢谢分享。

 
znml

回复时间:2018-2-6 21:30
谢谢分享~!




----------------------------------------------
 
梦回云阳

回复时间:2018-2-6 21:35
本套CD无尘共6张,争取明后二天连续推荐,分享完毕。春节期间不推荐新的了,请见谅。




----------------------------------------------
友情提醒:下载测试资源存放于免费网盘,不保证资源的长期有效;若有任何一方主张版权,请各管管或版版直接删除本帖,不用任何形式的通知我本人,谢谢。

华声论坛 影音帝国 官方QQ群
影视时空|音乐地带 QQ群:140288348 128111319 42933722
音乐快递QQ群:338549863 原声地带QQ群:344590352
高品质单曲QQ群:116060792 心情音乐QQ群:154659931
心情吟诵QQ群:190584521 音乐播放器QQ群:206520165
 
雪亮亮

回复时间:2018-2-6 23:41
谢谢分享清心佛乐

 
iimm66

回复时间:2018-2-7 06:10
[newem23.9




----------------------------------------------
 
liujun228

回复时间:2018-2-7 08:33
谢谢分享

 
csq154527

回复时间:2018-2-7 09:51
谢谢云阳版主分享




----------------------------------------------
戴 上 [ 耳 机 ] 、 世 界 与 我 无 关 、
 
郑志辉

回复时间:2018-2-7 10:00
好多谢分享!

 
雨水煮茶

回复时间:2018-2-7 10:44
感谢分享

 
发烧是烧钱

回复时间:2018-2-7 11:14
谢谢楼主分享

 
悠闲2018

回复时间:2018-2-7 11:29
谢谢云阳版主分享

 
冷风2016

回复时间:2018-2-7 11:37
谢谢楼主分享

 
贝壳10

回复时间:2018-2-7 12:09
谢谢分享。

 
发新帖 新投票
 回帖
查看积分策略说明快速回复主题
你的用户名: 密码:   免费注册(只要30秒)


启用 Html 代码
使用个人签名
(请您文明上网理性发言!并遵守相关规定
   



Processed in 0.029027 s, 9 q - 无图精简版,sitemap,