发新帖  新投票  回帖 
45900个阅读者,225条回复 | 打印 | 订阅 | 收藏
梦回云阳

发表时间:2018-2-11 10:12

【梦回云阳与您有约】群星·无尘CDE【WAV+CUE/百度网盘】



梦回云阳 发表在 音乐地带 华声论坛 http://bbs.voc.com.cn/forum-77-1.html










下载测试资源
**** 本内容跟帖回复才可浏览 *****


本帖助威记录

付力满 +1
太好了!谢谢
2018-03-12 21:46:57
花飞无梦 +1
你的帖子可以上新闻联播了
2018-02-13 15:51:44
总计:魅力2点 助威2查看所有助威>>



----------------------------------------------
友情提醒:下载测试资源存放于免费网盘,不保证资源的长期有效;若有任何一方主张版权,请各管管或版版直接删除本帖,不用任何形式的通知我本人,谢谢。

华声论坛 影音帝国 官方QQ群
影视时空|音乐地带 QQ群:140288348 128111319 42933722
音乐快递QQ群:338549863 原声地带QQ群:344590352
高品质单曲QQ群:116060792 心情音乐QQ群:154659931
心情吟诵QQ群:190584521 音乐播放器QQ群:206520165
 
梦回云阳

回复时间:2018-2-11 10:15

专辑名称:无尘CDE
专辑艺人:群星
资源格式:WAV


专辑介绍:
纯静人声与高雅佛乐的结合,聆听心灵新境界,一尘不染的新世纪音乐,触动人心底处的灵魂音乐。

专辑曲目:
01.妙法莲花观世音
02.莲花处处开
03.大准提陀罗尼
04.欢喜观音
05.传灯
06.八圣吉祥颂
07.观音菩萨如秋月
08.清净念佛
09.南无观世音菩萨
10.阿弥陀佛摇篮曲





----------------------------------------------
友情提醒:下载测试资源存放于免费网盘,不保证资源的长期有效;若有任何一方主张版权,请各管管或版版直接删除本帖,不用任何形式的通知我本人,谢谢。

华声论坛 影音帝国 官方QQ群
影视时空|音乐地带 QQ群:140288348 128111319 42933722
音乐快递QQ群:338549863 原声地带QQ群:344590352
高品质单曲QQ群:116060792 心情音乐QQ群:154659931
心情吟诵QQ群:190584521 音乐播放器QQ群:206520165
 
梦回云阳

回复时间:2018-2-11 10:18

按此在新窗口浏览图片





----------------------------------------------
友情提醒:下载测试资源存放于免费网盘,不保证资源的长期有效;若有任何一方主张版权,请各管管或版版直接删除本帖,不用任何形式的通知我本人,谢谢。

华声论坛 影音帝国 官方QQ群
影视时空|音乐地带 QQ群:140288348 128111319 42933722
音乐快递QQ群:338549863 原声地带QQ群:344590352
高品质单曲QQ群:116060792 心情音乐QQ群:154659931
心情吟诵QQ群:190584521 音乐播放器QQ群:206520165
 
梦回云阳

回复时间:2018-2-11 10:18

按此在新窗口浏览图片



[本帖最后由 梦回云阳 于 2018-11-18 13:41 编辑]




----------------------------------------------
友情提醒:下载测试资源存放于免费网盘,不保证资源的长期有效;若有任何一方主张版权,请各管管或版版直接删除本帖,不用任何形式的通知我本人,谢谢。

华声论坛 影音帝国 官方QQ群
影视时空|音乐地带 QQ群:140288348 128111319 42933722
音乐快递QQ群:338549863 原声地带QQ群:344590352
高品质单曲QQ群:116060792 心情音乐QQ群:154659931
心情吟诵QQ群:190584521 音乐播放器QQ群:206520165
 
梦回云阳

回复时间:2018-2-11 10:19

抓轨前检测:


按此在新窗口浏览图片


按此在新窗口浏览图片


按此在新窗口浏览图片



[本帖最后由 梦回云阳 于 2018-11-18 13:42 编辑]




----------------------------------------------
友情提醒:下载测试资源存放于免费网盘,不保证资源的长期有效;若有任何一方主张版权,请各管管或版版直接删除本帖,不用任何形式的通知我本人,谢谢。

华声论坛 影音帝国 官方QQ群
影视时空|音乐地带 QQ群:140288348 128111319 42933722
音乐快递QQ群:338549863 原声地带QQ群:344590352
高品质单曲QQ群:116060792 心情音乐QQ群:154659931
心情吟诵QQ群:190584521 音乐播放器QQ群:206520165
 
梦回云阳

回复时间:2018-2-11 10:19
EAC 抓取日志文件:


Exact Audio Copy V0.99 prebeta 4 from 23. January 2008

EAC 抓取日志文件从14. 一月 2018, 14:53

群星 / 无尘CDE

使用驱动器 :MATSHITADVD-RAM UJ8E0 Adapter: 0 ID: 0

读取模式 : 保护
使用精确流 : 是
废除音频缓冲 : 否
使用 C2 指针 : 否

组合读/写偏移校正 : 0
读取 Lead-In 和 Lead-Out : 否
用静音填充抓取中丢失偏移的采样 : 是
去除首尾静音块 : 否
在 CRC 计算中使用了空样本 : 否
已用接口 : Win NT 及 2000 本地 Win32 接口

所用输出格式 : 内部 WAV 函数
样本格式 : 44.100 Hz;16 Bit;立体声


被抓轨 CD 的 TOC

音轨 | 开始 | 长度 | 起始扇区 | 结尾扇区
--------------------------------------------------
1 | 0:00.00 | 4:20.16 | 0 | 19515
2 | 4:20.16 | 4:13.66 | 19516 | 38556
3 | 8:34.07 | 5:53.08 | 38557 | 65039
4 | 14:27.15 | 5:28.66 | 65040 | 89705
5 | 19:56.06 | 4:16.44 | 89706 | 108949
6 | 24:12.50 | 5:57.55 | 108950 | 135779
7 | 30:10.30 | 5:18.60 | 135780 | 159689
8 | 35:29.15 | 5:14.22 | 159690 | 183261
9 | 40:43.37 | 6:23.40 | 183262 | 212026
10 | 47:07.02 | 5:29.23 | 212027 | 236724


范围状态及错误

已选择范围

文件名 F:\音频抓轨\群星 - 无尘CDE.wav

峰值电平 99.9 %
范围质量 100.0 %
复制 CRC 2423CEA4
复制成功

没有错误发生

状态报告结尾

[本帖最后由 梦回云阳 于 2018-11-18 13:43 编辑]




----------------------------------------------
友情提醒:下载测试资源存放于免费网盘,不保证资源的长期有效;若有任何一方主张版权,请各管管或版版直接删除本帖,不用任何形式的通知我本人,谢谢。

华声论坛 影音帝国 官方QQ群
影视时空|音乐地带 QQ群:140288348 128111319 42933722
音乐快递QQ群:338549863 原声地带QQ群:344590352
高品质单曲QQ群:116060792 心情音乐QQ群:154659931
心情吟诵QQ群:190584521 音乐播放器QQ群:206520165
 
梦回云阳

回复时间:2018-2-11 10:19
所有音乐仅供测试及试听,音乐版权归原唱片公司所有,任何人不得用于商业用途!




----------------------------------------------
友情提醒:下载测试资源存放于免费网盘,不保证资源的长期有效;若有任何一方主张版权,请各管管或版版直接删除本帖,不用任何形式的通知我本人,谢谢。

华声论坛 影音帝国 官方QQ群
影视时空|音乐地带 QQ群:140288348 128111319 42933722
音乐快递QQ群:338549863 原声地带QQ群:344590352
高品质单曲QQ群:116060792 心情音乐QQ群:154659931
心情吟诵QQ群:190584521 音乐播放器QQ群:206520165
 
阿弥托佛

回复时间:2018-2-11 11:20
谢谢分享!




----------------------------------------------

佑天佑地佑人 送福送禄送寿
看经典美图到三晋!



 
csq154527

回复时间:2018-2-11 11:25
谢谢云阳版主分享




----------------------------------------------
戴 上 [ 耳 机 ] 、 世 界 与 我 无 关 、
 
sheepdu

回复时间:2018-2-11 11:37
谢谢分享!

 
雪亮亮

回复时间:2018-2-11 11:37
谢谢分享清心佛乐

 
chdglyy

回复时间:2018-2-11 11:43
感谢分享




----------------------------------------------
chdglyy
 
whlsw86

回复时间:2018-2-11 12:11
谢谢作提供的分享!

 
hitman4321

回复时间:2018-2-11 12:13
占位(CD封面)

 
haili2014

回复时间:2018-2-11 13:34
感谢分享

 
雨水煮茶

回复时间:2018-2-11 14:28
感谢分享

 
yyfs

回复时间:2018-2-11 16:11
谢谢分享!

 
znml

回复时间:2018-2-11 18:04
谢谢分享!




----------------------------------------------
 
yywei2002

回复时间:2018-2-11 19:11
wo xuy de dx

 
yycn21

回复时间:2018-2-11 19:28
谢谢分享!

 
发新帖 新投票
 回帖
查看积分策略说明快速回复主题
你的用户名: 密码:   免费注册(只要30秒)


启用 Html 代码
使用个人签名
(请您文明上网理性发言!并遵守相关规定
   



Processed in 0.030574 s, 9 q - 无图精简版,sitemap,