发新帖  新投票  回帖 
20004个阅读者,167条回复 | 打印 | 订阅 | 收藏
梦回云阳

发表时间:2018-5-26 17:08

【梦回云阳与您有约】群星·2005 香港高级视听展【WAV+CUE/百度网盘】   



梦回云阳 发表在 音乐地带 华声论坛 http://bbs.voc.com.cn/forum-77-1.html










下载测试资源
**** 本内容跟帖回复才可浏览 *****


本帖助威记录

花飞无梦 +1
你的帖子可以上新闻联播了
2018-06-18 19:53:29
li1962888 +3
比这精彩的帖子还有木有
2018-05-26 17:09:59
总计:魅力4点 助威2查看所有助威>>



----------------------------------------------
友情提醒:下载测试资源存放于免费网盘,不保证资源的长期有效;若有任何一方主张版权,请各管管或版版直接删除本帖,不用任何形式的通知我本人,谢谢。

华声论坛 影音帝国 官方QQ群
影视时空|音乐地带 QQ群:140288348 128111319 42933722
音乐快递QQ群:338549863 原声地带QQ群:344590352
高品质单曲QQ群:116060792 心情音乐QQ群:154659931
心情吟诵QQ群:190584521 音乐播放器QQ群:206520165
 
li1962888

回复时间:2018-5-26 17:09
欣赏佳作,谢谢分享!

 
梦回云阳

回复时间:2018-5-26 17:09

按此在新窗口浏览图片





----------------------------------------------
友情提醒:下载测试资源存放于免费网盘,不保证资源的长期有效;若有任何一方主张版权,请各管管或版版直接删除本帖,不用任何形式的通知我本人,谢谢。

华声论坛 影音帝国 官方QQ群
影视时空|音乐地带 QQ群:140288348 128111319 42933722
音乐快递QQ群:338549863 原声地带QQ群:344590352
高品质单曲QQ群:116060792 心情音乐QQ群:154659931
心情吟诵QQ群:190584521 音乐播放器QQ群:206520165
 
梦回云阳

回复时间:2018-5-26 17:10

按此在新窗口浏览图片





----------------------------------------------
友情提醒:下载测试资源存放于免费网盘,不保证资源的长期有效;若有任何一方主张版权,请各管管或版版直接删除本帖,不用任何形式的通知我本人,谢谢。

华声论坛 影音帝国 官方QQ群
影视时空|音乐地带 QQ群:140288348 128111319 42933722
音乐快递QQ群:338549863 原声地带QQ群:344590352
高品质单曲QQ群:116060792 心情音乐QQ群:154659931
心情吟诵QQ群:190584521 音乐播放器QQ群:206520165
 
梦回云阳

回复时间:2018-5-26 17:10

专辑名称:2005 香港高级视听展
专辑艺人:群星
资源格式:WAV+CUE


专辑曲目:
01. 你不认识我
02. 卡门幻想曲
03. 吹着北风
04. Ludwing van beethoven
05. 爱的礼赞
06. 乘喷气式飞机离开
07. 梦幻曲
08. 月光下
09. Julsang
10. 在彩虹之上
11. 丰收之歌
12. 贝多芬C小调第5交响曲
13. 缫丝横冲直撞
14. 夜思
14. 一个美好的婚姻





----------------------------------------------
友情提醒:下载测试资源存放于免费网盘,不保证资源的长期有效;若有任何一方主张版权,请各管管或版版直接删除本帖,不用任何形式的通知我本人,谢谢。

华声论坛 影音帝国 官方QQ群
影视时空|音乐地带 QQ群:140288348 128111319 42933722
音乐快递QQ群:338549863 原声地带QQ群:344590352
高品质单曲QQ群:116060792 心情音乐QQ群:154659931
心情吟诵QQ群:190584521 音乐播放器QQ群:206520165
 
梦回云阳

回复时间:2018-5-26 17:11

抓轨前检测:

按此在新窗口浏览图片


按此在新窗口浏览图片


按此在新窗口浏览图片





----------------------------------------------
友情提醒:下载测试资源存放于免费网盘,不保证资源的长期有效;若有任何一方主张版权,请各管管或版版直接删除本帖,不用任何形式的通知我本人,谢谢。

华声论坛 影音帝国 官方QQ群
影视时空|音乐地带 QQ群:140288348 128111319 42933722
音乐快递QQ群:338549863 原声地带QQ群:344590352
高品质单曲QQ群:116060792 心情音乐QQ群:154659931
心情吟诵QQ群:190584521 音乐播放器QQ群:206520165
 
梦回云阳

回复时间:2018-5-26 17:12
EAC 抓取日志文件:


Exact Audio Copy V0.99 prebeta 4 from 23. January 2008

EAC 抓取日志文件从4. 四月 2018, 7:42

群星 / 2005 香港高级视听展

使用驱动器 :MATSHITADVD-RAM UJ8E0 Adapter: 0 ID: 0

读取模式 : 保护
使用精确流 : 是
废除音频缓冲 : 否
使用 C2 指针 : 否

组合读/写偏移校正 : 0
读取 Lead-In 和 Lead-Out : 否
用静音填充抓取中丢失偏移的采样 : 是
去除首尾静音块 : 否
在 CRC 计算中使用了空样本 : 否
已用接口 : Win NT 及 2000 本地 Win32 接口

所用输出格式 : 内部 WAV 函数
样本格式 : 44.100 Hz;16 Bit;立体声


被抓轨 CD 的 TOC

音轨 | 开始 | 长度 | 起始扇区 | 结尾扇区
--------------------------------------------------
1 | 0:00.00 | 2:57.46 | 0 | 13320
2 | 2:57.46 | 3:21.10 | 13321 | 28405
3 | 6:18.56 | 5:09.74 | 28406 | 51654
4 | 11:28.55 | 9:35.12 | 51655 | 94791
5 | 21:03.67 | 2:48.41 | 94792 | 107432
6 | 23:52.33 | 3:56.18 | 107433 | 125150
7 | 27:48.51 | 3:22.64 | 125151 | 140364
8 | 31:11.40 | 3:11.13 | 140365 | 154702
9 | 34:22.53 | 4:19.55 | 154703 | 174182
10 | 38:42.33 | 2:18.22 | 174183 | 184554
11 | 41:00.55 | 4:52.17 | 184555 | 206471
12 | 45:52.72 | 7:24.06 | 206472 | 239777
13 | 53:17.03 | 4:19.63 | 239778 | 259265
14 | 57:36.66 | 6:33.01 | 259266 | 288741
15 | 64:09.67 | 8:31.56 | 288742 | 327122


范围状态及错误

已选择范围

文件名 F:\音频抓轨\群星 - 2005 香港高级视听展.wav

可疑位置 1:05:10
可疑位置 1:07:06
可疑位置 1:11:18
可疑位置 1:12:24

峰值电平 100.0 %
范围质量 98.2 %
复制 CRC D836C8E3
复制结束

出现错误

状态报告结尾




----------------------------------------------
友情提醒:下载测试资源存放于免费网盘,不保证资源的长期有效;若有任何一方主张版权,请各管管或版版直接删除本帖,不用任何形式的通知我本人,谢谢。

华声论坛 影音帝国 官方QQ群
影视时空|音乐地带 QQ群:140288348 128111319 42933722
音乐快递QQ群:338549863 原声地带QQ群:344590352
高品质单曲QQ群:116060792 心情音乐QQ群:154659931
心情吟诵QQ群:190584521 音乐播放器QQ群:206520165
 
梦回云阳

回复时间:2018-5-26 17:12
所有音乐仅供测试及试听,音乐版权归原唱片公司所有,任何人不得用于商业用途!




----------------------------------------------
友情提醒:下载测试资源存放于免费网盘,不保证资源的长期有效;若有任何一方主张版权,请各管管或版版直接删除本帖,不用任何形式的通知我本人,谢谢。

华声论坛 影音帝国 官方QQ群
影视时空|音乐地带 QQ群:140288348 128111319 42933722
音乐快递QQ群:338549863 原声地带QQ群:344590352
高品质单曲QQ群:116060792 心情音乐QQ群:154659931
心情吟诵QQ群:190584521 音乐播放器QQ群:206520165
 
960317

回复时间:2018-5-26 17:44
感谢楼主分享

 
ys3695312

回复时间:2018-5-26 17:46
谢谢分享!

 
ygryj

回复时间:2018-5-27 08:14
谢谢楼主分享

 
ai650515

回复时间:2018-5-30 11:08
谢谢分享

 
lyqzy

回复时间:2018-5-30 12:00
谢谢楼主分享!

 
daviszgd

回复时间:2018-5-30 13:56

 
calhsj2014

回复时间:2018-5-30 14:06
谢谢分享

 
13585947065

回复时间:2018-5-30 16:20
欣赏佳作,谢谢分享

 
山水布衣

回复时间:2018-5-30 18:35
多谢分享

 
fengshengxiaoji

回复时间:2018-5-30 20:15
多谢分享

 
墨池闻香

回复时间:2018-5-31 00:18
谢谢楼主分享




----------------------------------------------
芝兰生于幽谷,不以无人而不芳,君子修道立德,不以穷困而变节
 
680918

回复时间:2018-5-31 01:24
谢谢分享

 
发新帖 新投票
 回帖
查看积分策略说明快速回复主题
你的用户名: 密码:   免费注册(只要30秒)


启用 Html 代码
使用个人签名
(请您文明上网理性发言!并遵守相关规定
   



Processed in 0.030966 s, 9 q - 无图精简版,sitemap,