发新帖  新投票  回帖 
12335个阅读者,214条回复 | 打印 | 订阅 | 收藏
梦回云阳

发表时间:2018-8-19 15:00

【梦回云阳与您有约】群星·2008 香港高级视听展【WAV+CUE/百度网盘】



梦回云阳 发表在 音乐地带 华声论坛 http://bbs.voc.com.cn/forum-77-1.html










下载测试资源
**** 本内容跟帖回复才可浏览 *****





----------------------------------------------
友情提醒:下载测试资源存放于免费网盘,不保证资源的长期有效;若有任何一方主张版权,请各管管或版版直接删除本帖,不用任何形式的通知我本人,谢谢。

华声论坛 影音帝国 官方QQ群
影视时空|音乐地带 QQ群:140288348 128111319 42933722
音乐快递QQ群:338549863 原声地带QQ群:344590352
高品质单曲QQ群:116060792 心情音乐QQ群:154659931
心情吟诵QQ群:190584521 音乐播放器QQ群:206520165
 
梦回云阳

回复时间:2018-8-19 15:01

辑名称:2008 香港高级视听展
专辑艺人:群星
资源格式:WAV+CUE


专辑曲目:
01. 如风
02. 老鹰之歌
03. 致爱丽斯
04. 虎豹小霸王
05. 变幻莫测
06. Take Five
07. 为普通人而作的宣传
08. 游戏圈
09. Principalis
10. a大调协奏曲
11. 我亲爱的父亲
12. Presto
13. D小调第九交响曲
14. 布林迪西
15. 战台风
16. 龙腾虎跃





----------------------------------------------
友情提醒:下载测试资源存放于免费网盘,不保证资源的长期有效;若有任何一方主张版权,请各管管或版版直接删除本帖,不用任何形式的通知我本人,谢谢。

华声论坛 影音帝国 官方QQ群
影视时空|音乐地带 QQ群:140288348 128111319 42933722
音乐快递QQ群:338549863 原声地带QQ群:344590352
高品质单曲QQ群:116060792 心情音乐QQ群:154659931
心情吟诵QQ群:190584521 音乐播放器QQ群:206520165
 
梦回云阳

回复时间:2018-8-19 15:02

按此在新窗口浏览图片





----------------------------------------------
友情提醒:下载测试资源存放于免费网盘,不保证资源的长期有效;若有任何一方主张版权,请各管管或版版直接删除本帖,不用任何形式的通知我本人,谢谢。

华声论坛 影音帝国 官方QQ群
影视时空|音乐地带 QQ群:140288348 128111319 42933722
音乐快递QQ群:338549863 原声地带QQ群:344590352
高品质单曲QQ群:116060792 心情音乐QQ群:154659931
心情吟诵QQ群:190584521 音乐播放器QQ群:206520165
 
梦回云阳

回复时间:2018-8-19 15:02

按此在新窗口浏览图片





----------------------------------------------
友情提醒:下载测试资源存放于免费网盘,不保证资源的长期有效;若有任何一方主张版权,请各管管或版版直接删除本帖,不用任何形式的通知我本人,谢谢。

华声论坛 影音帝国 官方QQ群
影视时空|音乐地带 QQ群:140288348 128111319 42933722
音乐快递QQ群:338549863 原声地带QQ群:344590352
高品质单曲QQ群:116060792 心情音乐QQ群:154659931
心情吟诵QQ群:190584521 音乐播放器QQ群:206520165
 
梦回云阳

回复时间:2018-8-19 15:03

抓轨前检测

按此在新窗口浏览图片


按此在新窗口浏览图片


按此在新窗口浏览图片





----------------------------------------------
友情提醒:下载测试资源存放于免费网盘,不保证资源的长期有效;若有任何一方主张版权,请各管管或版版直接删除本帖,不用任何形式的通知我本人,谢谢。

华声论坛 影音帝国 官方QQ群
影视时空|音乐地带 QQ群:140288348 128111319 42933722
音乐快递QQ群:338549863 原声地带QQ群:344590352
高品质单曲QQ群:116060792 心情音乐QQ群:154659931
心情吟诵QQ群:190584521 音乐播放器QQ群:206520165
 
梦回云阳

回复时间:2018-8-19 15:04
EAC 抓取日志文件

Exact Audio Copy V0.99 prebeta 4 from 23. January 2008

EAC 抓取日志文件从4. 四月 2018, 12:16

群星 / 2008 香港高级视听展

使用驱动器 :MATSHITADVD-RAM UJ8E0 Adapter: 0 ID: 0

读取模式 : 保护
使用精确流 : 是
废除音频缓冲 : 否
使用 C2 指针 : 否

组合读/写偏移校正 : 0
读取 Lead-In 和 Lead-Out : 否
用静音填充抓取中丢失偏移的采样 : 是
去除首尾静音块 : 否
在 CRC 计算中使用了空样本 : 否
已用接口 : Win NT 及 2000 本地 Win32 接口

所用输出格式 : 内部 WAV 函数
样本格式 : 44.100 Hz;16 Bit;立体声


被抓轨 CD 的 TOC

音轨 | 开始 | 长度 | 起始扇区 | 结尾扇区
--------------------------------------------------
1 | 0:00.00 | 4:32.38 | 0 | 20437
2 | 4:32.38 | 4:01.59 | 20438 | 38571
3 | 8:34.22 | 3:00.62 | 38572 | 52133
4 | 11:35.09 | 3:52.49 | 52134 | 69582
5 | 15:27.58 | 3:14.62 | 69583 | 84194
6 | 18:42.45 | 5:31.11 | 84195 | 109030
7 | 24:13.56 | 3:45.65 | 109031 | 125970
8 | 27:59.46 | 4:12.06 | 125971 | 144876
9 | 32:11.52 | 5:16.28 | 144877 | 168604
10 | 37:28.05 | 6:42.32 | 168605 | 198786
11 | 44:10.37 | 3:02.08 | 198787 | 212444
12 | 47:12.45 | 6:24.49 | 212445 | 241293
13 | 53:37.19 | 2:49.46 | 241294 | 254014
14 | 56:26.65 | 3:43.24 | 254015 | 270763
15 | 60:10.14 | 6:20.27 | 270764 | 299290
16 | 66:30.41 | 7:12.17 | 299291 | 331707


范围状态及错误

已选择范围

文件名 F:\音频抓轨\群星 - 2008 香港高级视听展.wav

峰值电平 99.1 %
范围质量 99.9 %
复制 CRC 372E42FE
复制成功

没有错误发生

状态报告结尾




----------------------------------------------
友情提醒:下载测试资源存放于免费网盘,不保证资源的长期有效;若有任何一方主张版权,请各管管或版版直接删除本帖,不用任何形式的通知我本人,谢谢。

华声论坛 影音帝国 官方QQ群
影视时空|音乐地带 QQ群:140288348 128111319 42933722
音乐快递QQ群:338549863 原声地带QQ群:344590352
高品质单曲QQ群:116060792 心情音乐QQ群:154659931
心情吟诵QQ群:190584521 音乐播放器QQ群:206520165
 
梦回云阳

回复时间:2018-8-19 15:04
所有音乐仅供测试及试听,音乐版权归原唱片公司所有,任何人不得用于商业用途!




----------------------------------------------
友情提醒:下载测试资源存放于免费网盘,不保证资源的长期有效;若有任何一方主张版权,请各管管或版版直接删除本帖,不用任何形式的通知我本人,谢谢。

华声论坛 影音帝国 官方QQ群
影视时空|音乐地带 QQ群:140288348 128111319 42933722
音乐快递QQ群:338549863 原声地带QQ群:344590352
高品质单曲QQ群:116060792 心情音乐QQ群:154659931
心情吟诵QQ群:190584521 音乐播放器QQ群:206520165
 
雨水煮茶

回复时间:2018-8-19 17:43
感谢分享

 
sheepdu

回复时间:2018-8-19 18:33
感谢!谢谢分享!

 
laodai_777

回复时间:2018-8-19 19:00
很不错,好像有人发过了。

 
ZHANGHANWEI1952

回复时间:2018-8-19 20:32
收藏一下,谢谢提供分享

 
csq154527

回复时间:2018-8-19 21:37
谢谢云阳版主分享




----------------------------------------------
戴 上 [ 耳 机 ] 、 世 界 与 我 无 关 、
 
何人2017

回复时间:2018-8-20 09:24
精彩推荐

 
速育

回复时间:2018-8-21 16:30
谢谢提供分享

 
高比2018

回复时间:2018-8-22 15:45
初次发帖,请多关照

 
chengmenghome29

回复时间:2018-8-22 18:31
谢谢楼主分享

 
上不着天

回复时间:2018-8-22 19:29
谢谢分享!

 
huanglin0523

回复时间:2018-8-22 20:32
平时看电影情节的歌舞会有这种音乐

 
大峡谷123

回复时间:2018-8-22 23:32
谢谢楼主分享!!!!!!!!!

 
达达科技

回复时间:2018-8-23 10:14
谢谢提供分享

 
发新帖 新投票
 回帖
查看积分策略说明快速回复主题
你的用户名: 密码:   免费注册(只要30秒)


启用 Html 代码
使用个人签名
(请您文明上网理性发言!并遵守相关规定
   



Processed in 0.031080 s, 9 q - 无图精简版,sitemap,