发新帖  新投票  回帖 
1122个阅读者,37条回复 | 打印 | 订阅 | 收藏
梦回云阳

发表时间:2018-10-14 14:05

【梦回云阳与您有约】群星·2010 香港高级视听展【WAV+CUE/百度网盘】



梦回云阳 发表在 音乐地带 华声论坛 http://bbs.voc.com.cn/forum-77-1.html










下载测试资源
**** 本内容跟帖回复才可浏览 *****


本帖助威记录

燕子y +1
感谢分享
2018-10-16 08:34:20
总计:魅力1点 助威1查看所有助威>>



----------------------------------------------
友情提醒:下载测试资源存放于免费网盘,不保证资源的长期有效;若有任何一方主张版权,请各管管或版版直接删除本帖,不用任何形式的通知我本人,谢谢。

华声论坛 影音帝国 官方QQ群
影视时空|音乐地带 QQ群:140288348 128111319 42933722
音乐快递QQ群:338549863 原声地带QQ群:344590352
高品质单曲QQ群:116060792 心情音乐QQ群:154659931
心情吟诵QQ群:190584521 音乐播放器QQ群:206520165
 
梦回云阳

回复时间:2018-10-14 14:11

专辑名称:2010 香港高级视听展
专辑艺人:群星
资源格式:WAV+CUE


专辑曲目:
01. 祝我幸福
02. 你看起来很好
03. 嘉禾舞曲
04. 追忆
05. 花非花
06. 八音和
07. 小提琴协奏曲
08. 雪兰
09. 罗斯兰
10. 得意人生
11. 雷电波尔卡
12. 槟城艳
13. 生日快乐世界风
14. 芭芭雅嘎大门在基辅





----------------------------------------------
友情提醒:下载测试资源存放于免费网盘,不保证资源的长期有效;若有任何一方主张版权,请各管管或版版直接删除本帖,不用任何形式的通知我本人,谢谢。

华声论坛 影音帝国 官方QQ群
影视时空|音乐地带 QQ群:140288348 128111319 42933722
音乐快递QQ群:338549863 原声地带QQ群:344590352
高品质单曲QQ群:116060792 心情音乐QQ群:154659931
心情吟诵QQ群:190584521 音乐播放器QQ群:206520165
 
梦回云阳

回复时间:2018-10-14 14:12

抓轨前检测:

按此在新窗口浏览图片


按此在新窗口浏览图片


按此在新窗口浏览图片





----------------------------------------------
友情提醒:下载测试资源存放于免费网盘,不保证资源的长期有效;若有任何一方主张版权,请各管管或版版直接删除本帖,不用任何形式的通知我本人,谢谢。

华声论坛 影音帝国 官方QQ群
影视时空|音乐地带 QQ群:140288348 128111319 42933722
音乐快递QQ群:338549863 原声地带QQ群:344590352
高品质单曲QQ群:116060792 心情音乐QQ群:154659931
心情吟诵QQ群:190584521 音乐播放器QQ群:206520165
 
梦回云阳

回复时间:2018-10-14 14:12

按此在新窗口浏览图片





----------------------------------------------
友情提醒:下载测试资源存放于免费网盘,不保证资源的长期有效;若有任何一方主张版权,请各管管或版版直接删除本帖,不用任何形式的通知我本人,谢谢。

华声论坛 影音帝国 官方QQ群
影视时空|音乐地带 QQ群:140288348 128111319 42933722
音乐快递QQ群:338549863 原声地带QQ群:344590352
高品质单曲QQ群:116060792 心情音乐QQ群:154659931
心情吟诵QQ群:190584521 音乐播放器QQ群:206520165
 
梦回云阳

回复时间:2018-10-14 14:12
按此在新窗口浏览图片




----------------------------------------------
友情提醒:下载测试资源存放于免费网盘,不保证资源的长期有效;若有任何一方主张版权,请各管管或版版直接删除本帖,不用任何形式的通知我本人,谢谢。

华声论坛 影音帝国 官方QQ群
影视时空|音乐地带 QQ群:140288348 128111319 42933722
音乐快递QQ群:338549863 原声地带QQ群:344590352
高品质单曲QQ群:116060792 心情音乐QQ群:154659931
心情吟诵QQ群:190584521 音乐播放器QQ群:206520165
 
梦回云阳

回复时间:2018-10-14 14:13
EAC 抓取日志文件:


Exact Audio Copy V0.99 prebeta 4 from 23. January 2008

EAC 抓取日志文件从26. 九月 2018, 15:44

群星 / 2010 香港高级视听展

使用驱动器 :MATSHITADVD-RAM UJ8E0 Adapter: 0 ID: 0

读取模式 : 保护
使用精确流 : 是
废除音频缓冲 : 否
使用 C2 指针 : 否

组合读/写偏移校正 : 0
读取 Lead-In 和 Lead-Out : 否
用静音填充抓取中丢失偏移的采样 : 是
去除首尾静音块 : 否
在 CRC 计算中使用了空样本 : 否
已用接口 : Win NT 及 2000 本地 Win32 接口

所用输出格式 : 内部 WAV 函数
样本格式 : 44.100 Hz;16 Bit;立体声


被抓轨 CD 的 TOC

音轨 | 开始 | 长度 | 起始扇区 | 结尾扇区
--------------------------------------------------
1 | 0:00.00 | 4:27.30 | 0 | 20054
2 | 4:27.30 | 4:55.27 | 20055 | 42206
3 | 9:22.57 | 3:14.05 | 42207 | 56761
4 | 12:36.62 | 4:23.23 | 56762 | 76509
5 | 17:00.10 | 3:06.57 | 76510 | 90516
6 | 20:06.67 | 6:23.00 | 90517 | 119241
7 | 26:29.67 | 8:31.27 | 119242 | 157593
8 | 35:01.19 | 4:21.37 | 157594 | 177205
9 | 39:22.56 | 4:59.30 | 177206 | 199660
10 | 44:22.11 | 7:08.36 | 199661 | 231796
11 | 51:30.47 | 2:55.53 | 231797 | 244974
12 | 54:26.25 | 3:31.60 | 244975 | 260859
13 | 57:58.10 | 6:08.10 | 260860 | 288469
14 | 64:06.20 | 8:52.21 | 288470 | 328390


范围状态及错误

已选择范围

文件名 F:\音频抓轨\群星 - 2010 香港高级视听展.wav

峰值电平 98.3 %
范围质量 99.9 %
复制 CRC 3EAD6E2C
复制成功

没有错误发生

状态报告结尾




----------------------------------------------
友情提醒:下载测试资源存放于免费网盘,不保证资源的长期有效;若有任何一方主张版权,请各管管或版版直接删除本帖,不用任何形式的通知我本人,谢谢。

华声论坛 影音帝国 官方QQ群
影视时空|音乐地带 QQ群:140288348 128111319 42933722
音乐快递QQ群:338549863 原声地带QQ群:344590352
高品质单曲QQ群:116060792 心情音乐QQ群:154659931
心情吟诵QQ群:190584521 音乐播放器QQ群:206520165
 
梦回云阳

回复时间:2018-10-14 14:13
所有音乐仅供测试及试听,音乐版权归原唱片公司所有,任何人不得用于商业用途!




----------------------------------------------
友情提醒:下载测试资源存放于免费网盘,不保证资源的长期有效;若有任何一方主张版权,请各管管或版版直接删除本帖,不用任何形式的通知我本人,谢谢。

华声论坛 影音帝国 官方QQ群
影视时空|音乐地带 QQ群:140288348 128111319 42933722
音乐快递QQ群:338549863 原声地带QQ群:344590352
高品质单曲QQ群:116060792 心情音乐QQ群:154659931
心情吟诵QQ群:190584521 音乐播放器QQ群:206520165
 
hibage

回复时间:2018-10-14 14:45
谢谢分享。2009发为2010,是否已修正?

 
zty1688

回复时间:2018-10-14 15:02
谢谢分享

 
雨水煮茶

回复时间:2018-10-14 16:20
感谢分享

 
独立不迁668899

回复时间:2018-10-15 10:55
谢谢

 
梦回云阳

回复时间:2018-10-15 17:29

原帖由 hibage 于 2018-10-14 14:45 发表
谢谢分享。2009发为2010,是否已修正?

已修正,谢谢提醒。




----------------------------------------------
友情提醒:下载测试资源存放于免费网盘,不保证资源的长期有效;若有任何一方主张版权,请各管管或版版直接删除本帖,不用任何形式的通知我本人,谢谢。

华声论坛 影音帝国 官方QQ群
影视时空|音乐地带 QQ群:140288348 128111319 42933722
音乐快递QQ群:338549863 原声地带QQ群:344590352
高品质单曲QQ群:116060792 心情音乐QQ群:154659931
心情吟诵QQ群:190584521 音乐播放器QQ群:206520165
 
何人2017

回复时间:2018-10-15 20:59
谢谢分享

 
zx雄

回复时间:2018-10-15 23:05
谢谢分享

 
燕子y

回复时间:2018-10-16 08:34
感谢分享




----------------------------------------------
开心时听音乐是入耳

伤心时听音乐是入心
 
pzhwgzx

回复时间:2018-10-19 08:11
梦回云阳与您有约

 
柳小凡

回复时间:2018-10-19 16:23
生日快乐世界风

 
yycn21

回复时间:2018-10-19 22:43
谢谢分享

 
Planesman

回复时间:2018-10-20 03:02
感谢楼主分享

 
李德仁

回复时间:2018-10-21 17:52
谢谢分享

 
发新帖 新投票
 回帖
查看积分策略说明快速回复主题
你的用户名: 密码:   免费注册(只要30秒)


启用 Html 代码
使用个人签名
(请您文明上网理性发言!并遵守相关规定
   



Processed in 0.027151 s, 8 q - 无图精简版,sitemap,