发新帖  新投票  回帖 
梦回云阳

发表时间:2020-2-9 10:22

【梦回云阳与您有约】天碟落地·测机王【WAV+CUE/百度网盘】



梦回云阳 发表在 音乐地带 华声论坛 http://bbs.voc.com.cn/forum-77-1.html










下载测试资源
**** 本内容跟帖回复才可浏览 *****


本帖助威记录

7983638 +1
看了楼主的帖,神马都是浮云
2020-05-28 15:51:19
九头牛 +1
你的帖子可以上新闻联播了
2020-04-23 11:01:13
li1962888 +3
比这精彩的帖子还有木有
2020-02-09 22:21:48
总计:魅力5点 助威3查看所有助威>>



----------------------------------------------
友情提醒:下载测试资源存放于免费网盘,不保证资源的长期有效;若有任何一方主张版权,请各管管或版版直接删除本帖,不用任何形式的通知我本人,谢谢。

华声论坛 影音帝国 官方QQ群
影视时空|音乐地带 QQ群:140288348 128111319 42933722
音乐快递QQ群:338549863 原声地带QQ群:344590352
高品质单曲QQ群:116060792 心情音乐QQ群:154659931
心情吟诵QQ群:190584521 音乐播放器QQ群:206520165
 
梦回云阳

回复时间:2020-2-9 10:23

专辑名称:测机王
专辑艺人:群星
发行时间:2010
资源格式:WAV+CUE
专辑简介:
靓绝非凡录音缔造极品,动态凌历尽显碟王本色,HIFI史上罕有动态境界。无以复加,浑然天成音乐感染力无法抵挡。前所未有低频与冲击力弥足珍贵,云集世界各地殿堂级演绎名作,配上顶级录音大师靓绝录制,全套8张碟音色传真无比 层次鲜明,人声通透圆润 器乐真实。

专辑曲目
01.Once upon a dream
02.酒红色的心
03.渡口
04.鼓诗
05.梅花三弄
06.《安塔尔》交乡曲
07.此情可待
08.茉莉花
09.我将永远爱你
10.阳关三叠
11.EIves' Dance - Popper
12.Without You
13.独上西楼
14.被遗忘的时光
15.昨日重现
16.青藏高原
17.真的爱你





----------------------------------------------
友情提醒:下载测试资源存放于免费网盘,不保证资源的长期有效;若有任何一方主张版权,请各管管或版版直接删除本帖,不用任何形式的通知我本人,谢谢。

华声论坛 影音帝国 官方QQ群
影视时空|音乐地带 QQ群:140288348 128111319 42933722
音乐快递QQ群:338549863 原声地带QQ群:344590352
高品质单曲QQ群:116060792 心情音乐QQ群:154659931
心情吟诵QQ群:190584521 音乐播放器QQ群:206520165
 
梦回云阳

回复时间:2020-2-9 10:24

按此在新窗口浏览图片





----------------------------------------------
友情提醒:下载测试资源存放于免费网盘,不保证资源的长期有效;若有任何一方主张版权,请各管管或版版直接删除本帖,不用任何形式的通知我本人,谢谢。

华声论坛 影音帝国 官方QQ群
影视时空|音乐地带 QQ群:140288348 128111319 42933722
音乐快递QQ群:338549863 原声地带QQ群:344590352
高品质单曲QQ群:116060792 心情音乐QQ群:154659931
心情吟诵QQ群:190584521 音乐播放器QQ群:206520165
 
梦回云阳

回复时间:2020-2-9 10:24

按此在新窗口浏览图片





----------------------------------------------
友情提醒:下载测试资源存放于免费网盘,不保证资源的长期有效;若有任何一方主张版权,请各管管或版版直接删除本帖,不用任何形式的通知我本人,谢谢。

华声论坛 影音帝国 官方QQ群
影视时空|音乐地带 QQ群:140288348 128111319 42933722
音乐快递QQ群:338549863 原声地带QQ群:344590352
高品质单曲QQ群:116060792 心情音乐QQ群:154659931
心情吟诵QQ群:190584521 音乐播放器QQ群:206520165
 
梦回云阳

回复时间:2020-2-9 10:25

按此在新窗口浏览图片





----------------------------------------------
友情提醒:下载测试资源存放于免费网盘,不保证资源的长期有效;若有任何一方主张版权,请各管管或版版直接删除本帖,不用任何形式的通知我本人,谢谢。

华声论坛 影音帝国 官方QQ群
影视时空|音乐地带 QQ群:140288348 128111319 42933722
音乐快递QQ群:338549863 原声地带QQ群:344590352
高品质单曲QQ群:116060792 心情音乐QQ群:154659931
心情吟诵QQ群:190584521 音乐播放器QQ群:206520165
 
梦回云阳

回复时间:2020-2-9 10:27

抓轨前检测

按此在新窗口浏览图片


按此在新窗口浏览图片


按此在新窗口浏览图片





----------------------------------------------
友情提醒:下载测试资源存放于免费网盘,不保证资源的长期有效;若有任何一方主张版权,请各管管或版版直接删除本帖,不用任何形式的通知我本人,谢谢。

华声论坛 影音帝国 官方QQ群
影视时空|音乐地带 QQ群:140288348 128111319 42933722
音乐快递QQ群:338549863 原声地带QQ群:344590352
高品质单曲QQ群:116060792 心情音乐QQ群:154659931
心情吟诵QQ群:190584521 音乐播放器QQ群:206520165
 
梦回云阳

回复时间:2020-2-9 10:28
EAC 抓取日志文件

Exact Audio Copy V0.99 prebeta 4 from 23. January 2008

EAC 抓取日志文件从23. 十二月 2019, 17:25

群星 / 测机王

使用驱动器 :MATSHITADVD-RAM UJ8E0 Adapter: 0 ID: 1

读取模式 : 保护
使用精确流 : 是
废除音频缓冲 : 否
使用 C2 指针 : 否

组合读/写偏移校正 : 0
读取 Lead-In 和 Lead-Out : 否
用静音填充抓取中丢失偏移的采样 : 是
去除首尾静音块 : 否
在 CRC 计算中使用了空样本 : 否
已用接口 : Win NT 及 2000 本地 Win32 接口

所用输出格式 : 内部 WAV 函数
样本格式 : 44.100 Hz;16 Bit;立体声


被抓轨 CD 的 TOC

音轨 | 开始 | 长度 | 起始扇区 | 结尾扇区
--------------------------------------------------
1 | 0:00.00 | 2:59.05 | 0 | 13429
2 | 2:59.05 | 4:24.69 | 13430 | 33298
3 | 7:23.74 | 3:46.26 | 33299 | 50274
4 | 11:10.25 | 10:05.23 | 50275 | 95672
5 | 21:15.48 | 2:58.48 | 95673 | 109070
6 | 24:14.21 | 3:51.22 | 109071 | 126417
7 | 28:05.43 | 4:25.71 | 126418 | 146363
8 | 32:31.39 | 3:00.46 | 146364 | 159909
9 | 35:32.10 | 4:37.35 | 159910 | 180719
10 | 40:09.45 | 4:36.14 | 180720 | 201433
11 | 44:45.59 | 2:54.03 | 201434 | 214486
12 | 47:39.62 | 3:34.04 | 214487 | 230540
13 | 51:13.66 | 5:31.74 | 230541 | 255439
14 | 56:45.65 | 2:41.69 | 255440 | 267583
15 | 59:27.59 | 3:55.49 | 267584 | 285257
16 | 63:23.33 | 4:02.23 | 285258 | 303430
17 | 67:25.56 | 4:36.24 | 303431 | 324154


范围状态及错误

已选择范围

文件名 F:\音频抓轨\群星 - 测机王.wav

峰值电平 100.0 %
范围质量 99.9 %
复制 CRC C8118BA0
复制成功

没有错误发生

状态报告结尾




----------------------------------------------
友情提醒:下载测试资源存放于免费网盘,不保证资源的长期有效;若有任何一方主张版权,请各管管或版版直接删除本帖,不用任何形式的通知我本人,谢谢。

华声论坛 影音帝国 官方QQ群
影视时空|音乐地带 QQ群:140288348 128111319 42933722
音乐快递QQ群:338549863 原声地带QQ群:344590352
高品质单曲QQ群:116060792 心情音乐QQ群:154659931
心情吟诵QQ群:190584521 音乐播放器QQ群:206520165
 
梦回云阳

回复时间:2020-2-9 10:28
所有音乐仅供测试及试听,音乐版权归原唱片公司所有,任何人不得用于商业用途!




----------------------------------------------
友情提醒:下载测试资源存放于免费网盘,不保证资源的长期有效;若有任何一方主张版权,请各管管或版版直接删除本帖,不用任何形式的通知我本人,谢谢。

华声论坛 影音帝国 官方QQ群
影视时空|音乐地带 QQ群:140288348 128111319 42933722
音乐快递QQ群:338549863 原声地带QQ群:344590352
高品质单曲QQ群:116060792 心情音乐QQ群:154659931
心情吟诵QQ群:190584521 音乐播放器QQ群:206520165
 
zyt606

回复时间:2020-2-9 10:30
谢谢分享!

 
hming101

回复时间:2020-2-9 10:39
谢谢分享!

 
lcj710503

回复时间:2020-2-9 11:15
谢谢分享。

 
yangsen1

回复时间:2020-2-9 11:43
谢谢分享。

 
znml

回复时间:2020-2-9 11:46
谢谢分享!




----------------------------------------------
 
wjtang

回复时间:2020-2-9 12:37
谢谢分享!

 
bearxya

回复时间:2020-2-9 14:04
这个系列的碟片质量不错,音质挺好的。

 
pinan

回复时间:2020-2-9 14:28
谢谢分享!

 
luo321972

回复时间:2020-2-9 14:42
聆听经典.谢谢分享

 
弓翁

回复时间:2020-2-9 15:04
谢谢分享!

 
一生不变2019

回复时间:2020-2-9 15:31

 
nc6767

回复时间:2020-2-9 16:10
梦回云阳,久违了!

 
发新帖 新投票
 回帖
查看积分策略说明快速回复主题
你的用户名: 密码:   免费注册(只要30秒)


启用 Html 代码
使用个人签名
(请您文明上网理性发言!并遵守相关规定
   



Processed in 0.041386 s, 8 q - 无图精简版,sitemap,