发新帖  新投票  回帖 
梦回云阳

发表时间:2020-2-10 10:07

【梦回云阳与您有约】天碟落地·HIFI瑰宝【WAV+CUE/百度网盘】



梦回云阳 发表在 音乐地带 华声论坛 http://bbs.voc.com.cn/forum-77-1.html










下载测试资源
**** 本内容跟帖回复才可浏览 *****





----------------------------------------------
友情提醒:下载测试资源存放于免费网盘,不保证资源的长期有效;若有任何一方主张版权,请各管管或版版直接删除本帖,不用任何形式的通知我本人,谢谢。

华声论坛 影音帝国 官方QQ群
影视时空|音乐地带 QQ群:140288348 128111319 42933722
音乐快递QQ群:338549863 原声地带QQ群:344590352
高品质单曲QQ群:116060792 心情音乐QQ群:154659931
心情吟诵QQ群:190584521 音乐播放器QQ群:206520165
 
梦回云阳

回复时间:2020-2-10 10:08

专辑名称:HIFI瑰宝
专辑艺人:群星
发行时间:2010
资源格式:WAV+CUE
专辑简介:
靓绝非凡录音缔造极品,动态凌历尽显碟王本色,HIFI史上罕有动态境界。无以复加,浑然天成音乐感染力无法抵挡。前所未有低频与冲击力弥足珍贵,云集世界各地殿堂级演绎名作,配上顶级录音大师靓绝录制,全套8张碟音色传真无比 层次鲜明,人声通透圆润 器乐真实。

专辑曲目
01.梦的延续
02.吉他低泣时
03.天空
04.黄河的水干了
05.0-DAIKO
06.高山流水
07.春江花月夜
08.歌剧NO.2
09.告别时刻
10.柳濑小镇
11.La Capricieuse
12.明明千里寄相思
13.解脱
14.出塞曲
15.伤痕
16.英雄
17.万宝路进行曲





----------------------------------------------
友情提醒:下载测试资源存放于免费网盘,不保证资源的长期有效;若有任何一方主张版权,请各管管或版版直接删除本帖,不用任何形式的通知我本人,谢谢。

华声论坛 影音帝国 官方QQ群
影视时空|音乐地带 QQ群:140288348 128111319 42933722
音乐快递QQ群:338549863 原声地带QQ群:344590352
高品质单曲QQ群:116060792 心情音乐QQ群:154659931
心情吟诵QQ群:190584521 音乐播放器QQ群:206520165
 
梦回云阳

回复时间:2020-2-10 10:09

按此在新窗口浏览图片





----------------------------------------------
友情提醒:下载测试资源存放于免费网盘,不保证资源的长期有效;若有任何一方主张版权,请各管管或版版直接删除本帖,不用任何形式的通知我本人,谢谢。

华声论坛 影音帝国 官方QQ群
影视时空|音乐地带 QQ群:140288348 128111319 42933722
音乐快递QQ群:338549863 原声地带QQ群:344590352
高品质单曲QQ群:116060792 心情音乐QQ群:154659931
心情吟诵QQ群:190584521 音乐播放器QQ群:206520165
 
梦回云阳

回复时间:2020-2-10 10:09

按此在新窗口浏览图片





----------------------------------------------
友情提醒:下载测试资源存放于免费网盘,不保证资源的长期有效;若有任何一方主张版权,请各管管或版版直接删除本帖,不用任何形式的通知我本人,谢谢。

华声论坛 影音帝国 官方QQ群
影视时空|音乐地带 QQ群:140288348 128111319 42933722
音乐快递QQ群:338549863 原声地带QQ群:344590352
高品质单曲QQ群:116060792 心情音乐QQ群:154659931
心情吟诵QQ群:190584521 音乐播放器QQ群:206520165
 
梦回云阳

回复时间:2020-2-10 10:09

按此在新窗口浏览图片





----------------------------------------------
友情提醒:下载测试资源存放于免费网盘,不保证资源的长期有效;若有任何一方主张版权,请各管管或版版直接删除本帖,不用任何形式的通知我本人,谢谢。

华声论坛 影音帝国 官方QQ群
影视时空|音乐地带 QQ群:140288348 128111319 42933722
音乐快递QQ群:338549863 原声地带QQ群:344590352
高品质单曲QQ群:116060792 心情音乐QQ群:154659931
心情吟诵QQ群:190584521 音乐播放器QQ群:206520165
 
梦回云阳

回复时间:2020-2-10 10:10

抓轨前检测

按此在新窗口浏览图片


按此在新窗口浏览图片


按此在新窗口浏览图片





----------------------------------------------
友情提醒:下载测试资源存放于免费网盘,不保证资源的长期有效;若有任何一方主张版权,请各管管或版版直接删除本帖,不用任何形式的通知我本人,谢谢。

华声论坛 影音帝国 官方QQ群
影视时空|音乐地带 QQ群:140288348 128111319 42933722
音乐快递QQ群:338549863 原声地带QQ群:344590352
高品质单曲QQ群:116060792 心情音乐QQ群:154659931
心情吟诵QQ群:190584521 音乐播放器QQ群:206520165
 
梦回云阳

回复时间:2020-2-10 10:11
EAC 抓取日志文件

Exact Audio Copy V0.99 prebeta 4 from 23. January 2008

EAC 抓取日志文件从23. 十二月 2019, 18:37

群星 / HIFI瑰宝

使用驱动器 :MATSHITADVD-RAM UJ8E0 Adapter: 0 ID: 1

读取模式 : 保护
使用精确流 : 是
废除音频缓冲 : 否
使用 C2 指针 : 否

组合读/写偏移校正 : 0
读取 Lead-In 和 Lead-Out : 否
用静音填充抓取中丢失偏移的采样 : 是
去除首尾静音块 : 否
在 CRC 计算中使用了空样本 : 否
已用接口 : Win NT 及 2000 本地 Win32 接口

所用输出格式 : 内部 WAV 函数
样本格式 : 44.100 Hz;16 Bit;立体声


被抓轨 CD 的 TOC

音轨 | 开始 | 长度 | 起始扇区 | 结尾扇区
--------------------------------------------------
1 | 0:00.00 | 5:11.32 | 0 | 23356
2 | 5:11.32 | 5:45.29 | 23357 | 49260
3 | 10:56.61 | 3:41.68 | 49261 | 65903
4 | 14:38.54 | 1:12.69 | 65904 | 71372
5 | 15:51.48 | 4:06.11 | 71373 | 89833
6 | 19:57.59 | 3:11.46 | 89834 | 104204
7 | 23:09.30 | 10:07.72 | 104205 | 149801
8 | 33:17.27 | 3:18.52 | 149802 | 164703
9 | 36:36.04 | 3:47.09 | 164704 | 181737
10 | 40:23.13 | 4:10.50 | 181738 | 200537
11 | 44:33.63 | 4:01.40 | 200538 | 218652
12 | 48:35.28 | 3:16.74 | 218653 | 233426
13 | 51:52.27 | 4:48.10 | 233427 | 255036
14 | 56:40.37 | 3:52.24 | 255037 | 272460
15 | 60:32.61 | 6:02.28 | 272461 | 299638
16 | 66:35.14 | 4:24.43 | 299639 | 319481
17 | 70:59.57 | 5:33.49 | 319482 | 344505


范围状态及错误

已选择范围

文件名 F:\音频抓轨\群星 - HIFI瑰宝.wav

可疑位置 1:16:01 - 1:16:33

峰值电平 100.0 %
范围质量 99.1 %
复制 CRC 2E8EFE7F
复制结束

出现错误

状态报告结尾




----------------------------------------------
友情提醒:下载测试资源存放于免费网盘,不保证资源的长期有效;若有任何一方主张版权,请各管管或版版直接删除本帖,不用任何形式的通知我本人,谢谢。

华声论坛 影音帝国 官方QQ群
影视时空|音乐地带 QQ群:140288348 128111319 42933722
音乐快递QQ群:338549863 原声地带QQ群:344590352
高品质单曲QQ群:116060792 心情音乐QQ群:154659931
心情吟诵QQ群:190584521 音乐播放器QQ群:206520165
 
梦回云阳

回复时间:2020-2-10 10:11
所有音乐仅供测试及试听,音乐版权归原唱片公司所有,任何人不得用于商业用途!




----------------------------------------------
友情提醒:下载测试资源存放于免费网盘,不保证资源的长期有效;若有任何一方主张版权,请各管管或版版直接删除本帖,不用任何形式的通知我本人,谢谢。

华声论坛 影音帝国 官方QQ群
影视时空|音乐地带 QQ群:140288348 128111319 42933722
音乐快递QQ群:338549863 原声地带QQ群:344590352
高品质单曲QQ群:116060792 心情音乐QQ群:154659931
心情吟诵QQ群:190584521 音乐播放器QQ群:206520165
 
锡林

回复时间:2020-2-10 10:15
谢谢楼主分享。

 
雨水煮茶

回复时间:2020-2-10 10:28
感谢分享

 
migi2

回复时间:2020-2-10 10:36
谢谢分享

 
MCTO_3pnyl51cr

回复时间:2020-2-10 11:13

 
huangbyu

回复时间:2020-2-10 12:55
谢谢分享

 
hang2818

回复时间:2020-2-10 16:10
谢谢楼主分享

 
wjtang

回复时间:2020-2-10 17:06
谢谢分享~

 
gaoxuan

回复时间:2020-2-10 17:23
多谢楼主分享!很喜欢的音乐。

 
whlsw86

回复时间:2020-2-10 18:01
谢谢分享!

 
nmhhht99

回复时间:2020-2-10 18:30
谢谢分享

 
云山云

回复时间:2020-2-10 18:51
谢谢分享

 
1958chang

回复时间:2020-2-10 20:28
感谢分享

 
发新帖 新投票
 回帖
查看积分策略说明快速回复主题
你的用户名: 密码:   免费注册(只要30秒)


启用 Html 代码
使用个人签名
(请您文明上网理性发言!并遵守相关规定
   



Processed in 0.023844 s, 8 q - 无图精简版,sitemap,