发新帖  新投票  回帖 
梦回云阳

发表时间:2020-2-11 14:36

【梦回云阳与您有约】天碟落地·极品盛宴【WAV+CUE/百度网盘】



梦回云阳 发表在 音乐地带 华声论坛 http://bbs.voc.com.cn/forum-77-1.html










下载测试资源
**** 本内容跟帖回复才可浏览 *****


本帖助威记录

ljker +1
抓狂中,我们这又把城通封了,不让下载啊
2020-04-07 11:46:55
总计:魅力1点 助威1查看所有助威>>



----------------------------------------------
友情提醒:下载测试资源存放于免费网盘,不保证资源的长期有效;若有任何一方主张版权,请各管管或版版直接删除本帖,不用任何形式的通知我本人,谢谢。

华声论坛 影音帝国 官方QQ群
影视时空|音乐地带 QQ群:140288348 128111319 42933722
音乐快递QQ群:338549863 原声地带QQ群:344590352
高品质单曲QQ群:116060792 心情音乐QQ群:154659931
心情吟诵QQ群:190584521 音乐播放器QQ群:206520165
 
梦回云阳

回复时间:2020-2-11 14:36

专辑名称:极品盛宴
专辑艺人:群星
发行时间:2010
资源格式:WAV+CUE
专辑简介:
靓绝非凡录音缔造极品,动态凌历尽显碟王本色,HIFI史上罕有动态境界。无以复加,浑然天成音乐感染力无法抵挡。前所未有低频与冲击力弥足珍贵,云集世界各地殿堂级演绎名作,配上顶级录音大师靓绝录制,全套8张碟音色传真无比 层次鲜明,人声通透圆润 器乐真实。

专辑曲目
01.测试提琴低音王
02.葬心
03.风平浪静
04.响宴
05.月光小夜曲
06.知音
07.七月里的冬天
08.图书展览馆-基辅大门
09.偏偏喜欢你
10.江河水
11.当你相信时
12.My Love
13.古琴对唢呐
14.空凳
15.南海姑娘
16.穆特小提琴
17.矜持
18.机遇





----------------------------------------------
友情提醒:下载测试资源存放于免费网盘,不保证资源的长期有效;若有任何一方主张版权,请各管管或版版直接删除本帖,不用任何形式的通知我本人,谢谢。

华声论坛 影音帝国 官方QQ群
影视时空|音乐地带 QQ群:140288348 128111319 42933722
音乐快递QQ群:338549863 原声地带QQ群:344590352
高品质单曲QQ群:116060792 心情音乐QQ群:154659931
心情吟诵QQ群:190584521 音乐播放器QQ群:206520165
 
梦回云阳

回复时间:2020-2-11 14:37

按此在新窗口浏览图片





----------------------------------------------
友情提醒:下载测试资源存放于免费网盘,不保证资源的长期有效;若有任何一方主张版权,请各管管或版版直接删除本帖,不用任何形式的通知我本人,谢谢。

华声论坛 影音帝国 官方QQ群
影视时空|音乐地带 QQ群:140288348 128111319 42933722
音乐快递QQ群:338549863 原声地带QQ群:344590352
高品质单曲QQ群:116060792 心情音乐QQ群:154659931
心情吟诵QQ群:190584521 音乐播放器QQ群:206520165
 
梦回云阳

回复时间:2020-2-11 14:37

按此在新窗口浏览图片





----------------------------------------------
友情提醒:下载测试资源存放于免费网盘,不保证资源的长期有效;若有任何一方主张版权,请各管管或版版直接删除本帖,不用任何形式的通知我本人,谢谢。

华声论坛 影音帝国 官方QQ群
影视时空|音乐地带 QQ群:140288348 128111319 42933722
音乐快递QQ群:338549863 原声地带QQ群:344590352
高品质单曲QQ群:116060792 心情音乐QQ群:154659931
心情吟诵QQ群:190584521 音乐播放器QQ群:206520165
 
梦回云阳

回复时间:2020-2-11 14:38

抓轨前检测

按此在新窗口浏览图片


按此在新窗口浏览图片


按此在新窗口浏览图片





----------------------------------------------
友情提醒:下载测试资源存放于免费网盘,不保证资源的长期有效;若有任何一方主张版权,请各管管或版版直接删除本帖,不用任何形式的通知我本人,谢谢。

华声论坛 影音帝国 官方QQ群
影视时空|音乐地带 QQ群:140288348 128111319 42933722
音乐快递QQ群:338549863 原声地带QQ群:344590352
高品质单曲QQ群:116060792 心情音乐QQ群:154659931
心情吟诵QQ群:190584521 音乐播放器QQ群:206520165
 
梦回云阳

回复时间:2020-2-11 14:39
EAC 抓取日志文件:

Exact Audio Copy V0.99 prebeta 4 from 23. January 2008

EAC 抓取日志文件从24. 十二月 2019, 10:56

群星 / 极品盛宴

使用驱动器 :MATSHITADVD-RAM UJ8E0 Adapter: 0 ID: 1

读取模式 : 保护
使用精确流 : 是
废除音频缓冲 : 否
使用 C2 指针 : 否

组合读/写偏移校正 : 0
读取 Lead-In 和 Lead-Out : 否
用静音填充抓取中丢失偏移的采样 : 是
去除首尾静音块 : 否
在 CRC 计算中使用了空样本 : 否
已用接口 : Win NT 及 2000 本地 Win32 接口

所用输出格式 : 内部 WAV 函数
样本格式 : 44.100 Hz;16 Bit;立体声


被抓轨 CD 的 TOC

音轨 | 开始 | 长度 | 起始扇区 | 结尾扇区
--------------------------------------------------
1 | 0:00.00 | 1:29.03 | 0 | 6677
2 | 1:29.03 | 5:02.54 | 6678 | 29381
3 | 6:31.57 | 4:39.64 | 29382 | 50370
4 | 11:11.46 | 8:29.23 | 50371 | 88568
5 | 19:40.69 | 4:00.70 | 88569 | 106638
6 | 23:41.64 | 4:18.07 | 106639 | 125995
7 | 27:59.71 | 4:38.68 | 125996 | 146913
8 | 32:38.64 | 1:39.02 | 146914 | 154340
9 | 34:17.66 | 3:35.45 | 154341 | 170510
10 | 37:53.36 | 7:05.39 | 170511 | 202424
11 | 44:59.00 | 4:39.06 | 202425 | 223355
12 | 49:38.06 | 3:55.29 | 223356 | 241009
13 | 53:33.35 | 1:25.03 | 241010 | 247387
14 | 54:58.38 | 4:47.46 | 247388 | 268958
15 | 59:46.09 | 4:05.09 | 268959 | 287342
16 | 63:51.18 | 3:00.01 | 287343 | 300843
17 | 66:51.19 | 4:42.63 | 300844 | 322056
18 | 71:34.07 | 4:12.00 | 322057 | 340956


范围状态及错误

已选择范围

文件名 F:\音频抓轨\群星 - 极品盛宴.wav

峰值电平 100.0 %
范围质量 100.0 %
复制 CRC CFF86756
复制成功

没有错误发生

状态报告结尾




----------------------------------------------
友情提醒:下载测试资源存放于免费网盘,不保证资源的长期有效;若有任何一方主张版权,请各管管或版版直接删除本帖,不用任何形式的通知我本人,谢谢。

华声论坛 影音帝国 官方QQ群
影视时空|音乐地带 QQ群:140288348 128111319 42933722
音乐快递QQ群:338549863 原声地带QQ群:344590352
高品质单曲QQ群:116060792 心情音乐QQ群:154659931
心情吟诵QQ群:190584521 音乐播放器QQ群:206520165
 
梦回云阳

回复时间:2020-2-11 14:39
所有音乐仅供测试及试听,音乐版权归原唱片公司所有,任何人不得用于商业用途!




----------------------------------------------
友情提醒:下载测试资源存放于免费网盘,不保证资源的长期有效;若有任何一方主张版权,请各管管或版版直接删除本帖,不用任何形式的通知我本人,谢谢。

华声论坛 影音帝国 官方QQ群
影视时空|音乐地带 QQ群:140288348 128111319 42933722
音乐快递QQ群:338549863 原声地带QQ群:344590352
高品质单曲QQ群:116060792 心情音乐QQ群:154659931
心情吟诵QQ群:190584521 音乐播放器QQ群:206520165
 
gaoxuan

回复时间:2020-2-11 17:25
很棒的资源!感谢楼主提供!

 
yjqz

回复时间:2020-2-11 18:29
谢谢楼主分享啦

 
云山云

回复时间:2020-2-11 19:36
经典,谢谢分享

 
小小兵哥

回复时间:2020-2-11 20:13
谢谢云阳版主分享

 
弓翁

回复时间:2020-2-11 21:39
谢谢分享!

 
jrz2004

回复时间:2020-2-11 22:00
感谢楼主的无私分享。

 
yuguo0005

回复时间:2020-2-11 22:06
欣赏佳作,谢谢分享!

 
戏子2018

回复时间:2020-2-11 22:40
七月里的冬天

 
jowhs

回复时间:2020-2-12 04:53
天碟落地·极品盛宴

 
阿弥托佛

回复时间:2020-2-12 09:12
谢谢分享!




----------------------------------------------

佑天佑地佑人 送福送禄送寿
看经典美图到三晋!



 
pyy123

回复时间:2020-2-12 11:41
dddddddddddddddd

 
yuzeng

回复时间:2020-2-12 11:54
谢谢分享!

 
yuzeng

回复时间:2020-2-12 11:55
谢谢分享!

 
发新帖 新投票
 回帖
查看积分策略说明快速回复主题
你的用户名: 密码:   免费注册(只要30秒)


启用 Html 代码
使用个人签名
(请您文明上网理性发言!并遵守相关规定
   



Processed in 0.035883 s, 8 q - 无图精简版,sitemap,