发新帖  新投票  回帖 
梦回云阳

发表时间:2020-2-12 09:41

【梦回云阳与您有约】天碟落地·神品天籁【WAV+CUE/百度网盘】



梦回云阳 发表在 音乐地带 华声论坛 http://bbs.voc.com.cn/forum-77-1.html










下载测试资源
**** 本内容跟帖回复才可浏览 *****


本帖助威记录

haha3210 +1
你的帖子可以上新闻联播了
2020-03-01 21:58:45
总计:魅力1点 助威1查看所有助威>>



----------------------------------------------
友情提醒:下载测试资源存放于免费网盘,不保证资源的长期有效;若有任何一方主张版权,请各管管或版版直接删除本帖,不用任何形式的通知我本人,谢谢。

华声论坛 影音帝国 官方QQ群
影视时空|音乐地带 QQ群:140288348 128111319 42933722
音乐快递QQ群:338549863 原声地带QQ群:344590352
高品质单曲QQ群:116060792 心情音乐QQ群:154659931
心情吟诵QQ群:190584521 音乐播放器QQ群:206520165
 
梦回云阳

回复时间:2020-2-12 09:41

专辑名称:神品天籁
专辑艺人:群星
发行时间:2010
资源格式:WAV+CUE
专辑简介:
靓绝非凡录音缔造极品,动态凌历尽显碟王本色,HIFI史上罕有动态境界。无以复加,浑然天成音乐感染力无法抵挡。前所未有低频与冲击力弥足珍贵,云集世界各地殿堂级演绎名作,配上顶级录音大师靓绝录制,全套8张碟音色传真无比 层次鲜明,人声通透圆润 器乐真实。

专辑曲目
01.西部之声
02.我唯一的爱
03.梦想的旅店
04.神香-喜马拉雅王子主题曲
05.秋思幻想曲
06.真神慈悲如海洋
07.康威海岸
08.新的世界
09.公主太子
10.小夜曲
11.偶然
12.让我牵你的手
13.广陵散
14. Another Place Another Time
15.执迷不悔
16.平凡人的号角
17.施特劳斯圆舞曲





----------------------------------------------
友情提醒:下载测试资源存放于免费网盘,不保证资源的长期有效;若有任何一方主张版权,请各管管或版版直接删除本帖,不用任何形式的通知我本人,谢谢。

华声论坛 影音帝国 官方QQ群
影视时空|音乐地带 QQ群:140288348 128111319 42933722
音乐快递QQ群:338549863 原声地带QQ群:344590352
高品质单曲QQ群:116060792 心情音乐QQ群:154659931
心情吟诵QQ群:190584521 音乐播放器QQ群:206520165
 
梦回云阳

回复时间:2020-2-12 09:42

按此在新窗口浏览图片





----------------------------------------------
友情提醒:下载测试资源存放于免费网盘,不保证资源的长期有效;若有任何一方主张版权,请各管管或版版直接删除本帖,不用任何形式的通知我本人,谢谢。

华声论坛 影音帝国 官方QQ群
影视时空|音乐地带 QQ群:140288348 128111319 42933722
音乐快递QQ群:338549863 原声地带QQ群:344590352
高品质单曲QQ群:116060792 心情音乐QQ群:154659931
心情吟诵QQ群:190584521 音乐播放器QQ群:206520165
 
梦回云阳

回复时间:2020-2-12 09:42

按此在新窗口浏览图片





----------------------------------------------
友情提醒:下载测试资源存放于免费网盘,不保证资源的长期有效;若有任何一方主张版权,请各管管或版版直接删除本帖,不用任何形式的通知我本人,谢谢。

华声论坛 影音帝国 官方QQ群
影视时空|音乐地带 QQ群:140288348 128111319 42933722
音乐快递QQ群:338549863 原声地带QQ群:344590352
高品质单曲QQ群:116060792 心情音乐QQ群:154659931
心情吟诵QQ群:190584521 音乐播放器QQ群:206520165
 
梦回云阳

回复时间:2020-2-12 09:42

按此在新窗口浏览图片





----------------------------------------------
友情提醒:下载测试资源存放于免费网盘,不保证资源的长期有效;若有任何一方主张版权,请各管管或版版直接删除本帖,不用任何形式的通知我本人,谢谢。

华声论坛 影音帝国 官方QQ群
影视时空|音乐地带 QQ群:140288348 128111319 42933722
音乐快递QQ群:338549863 原声地带QQ群:344590352
高品质单曲QQ群:116060792 心情音乐QQ群:154659931
心情吟诵QQ群:190584521 音乐播放器QQ群:206520165
 
梦回云阳

回复时间:2020-2-12 09:43

抓轨前检测

按此在新窗口浏览图片


按此在新窗口浏览图片


按此在新窗口浏览图片





----------------------------------------------
友情提醒:下载测试资源存放于免费网盘,不保证资源的长期有效;若有任何一方主张版权,请各管管或版版直接删除本帖,不用任何形式的通知我本人,谢谢。

华声论坛 影音帝国 官方QQ群
影视时空|音乐地带 QQ群:140288348 128111319 42933722
音乐快递QQ群:338549863 原声地带QQ群:344590352
高品质单曲QQ群:116060792 心情音乐QQ群:154659931
心情吟诵QQ群:190584521 音乐播放器QQ群:206520165
 
梦回云阳

回复时间:2020-2-12 09:44
EAC 抓取日志文件:

Exact Audio Copy V0.99 prebeta 4 from 23. January 2008

EAC 抓取日志文件从24. 十二月 2019, 12:24

群星 / 神品天籁

使用驱动器 :MATSHITADVD-RAM UJ8E0 Adapter: 0 ID: 1

读取模式 : 保护
使用精确流 : 是
废除音频缓冲 : 否
使用 C2 指针 : 否

组合读/写偏移校正 : 0
读取 Lead-In 和 Lead-Out : 否
用静音填充抓取中丢失偏移的采样 : 是
去除首尾静音块 : 否
在 CRC 计算中使用了空样本 : 否
已用接口 : Win NT 及 2000 本地 Win32 接口

所用输出格式 : 内部 WAV 函数
样本格式 : 44.100 Hz;16 Bit;立体声


被抓轨 CD 的 TOC

音轨 | 开始 | 长度 | 起始扇区 | 结尾扇区
--------------------------------------------------
1 | 0:00.00 | 0:57.13 | 0 | 4287
2 | 0:57.13 | 2:54.64 | 4288 | 17401
3 | 3:52.02 | 6:56.33 | 17402 | 48634
4 | 10:48.35 | 5:53.28 | 48635 | 75137
5 | 16:41.63 | 11:07.65 | 75138 | 125227
6 | 27:49.53 | 2:03.72 | 125228 | 134524
7 | 29:53.50 | 4:05.61 | 134525 | 152960
8 | 33:59.36 | 4:34.18 | 152961 | 173528
9 | 38:33.54 | 3:52.19 | 173529 | 190947
10 | 42:25.73 | 5:32.49 | 190948 | 215896
11 | 47:58.47 | 4:26.19 | 215897 | 235865
12 | 52:24.66 | 3:55.31 | 235866 | 253521
13 | 56:20.22 | 6:18.55 | 253522 | 281926
14 | 62:39.02 | 3:16.58 | 281927 | 296684
15 | 65:55.60 | 4:30.39 | 296685 | 316973
16 | 70:26.24 | 3:36.00 | 316974 | 333173
17 | 74:02.24 | 2:21.21 | 333174 | 343769


范围状态及错误

已选择范围

文件名 F:\音频抓轨\群星 - 神品天籁.wav

峰值电平 100.0 %
范围质量 100.0 %
复制 CRC BCE0C967
复制成功

没有错误发生

状态报告结尾




----------------------------------------------
友情提醒:下载测试资源存放于免费网盘,不保证资源的长期有效;若有任何一方主张版权,请各管管或版版直接删除本帖,不用任何形式的通知我本人,谢谢。

华声论坛 影音帝国 官方QQ群
影视时空|音乐地带 QQ群:140288348 128111319 42933722
音乐快递QQ群:338549863 原声地带QQ群:344590352
高品质单曲QQ群:116060792 心情音乐QQ群:154659931
心情吟诵QQ群:190584521 音乐播放器QQ群:206520165
 
梦回云阳

回复时间:2020-2-12 09:44
所有音乐仅供测试及试听,音乐版权归原唱片公司所有,任何人不得用于商业用途!




----------------------------------------------
友情提醒:下载测试资源存放于免费网盘,不保证资源的长期有效;若有任何一方主张版权,请各管管或版版直接删除本帖,不用任何形式的通知我本人,谢谢。

华声论坛 影音帝国 官方QQ群
影视时空|音乐地带 QQ群:140288348 128111319 42933722
音乐快递QQ群:338549863 原声地带QQ群:344590352
高品质单曲QQ群:116060792 心情音乐QQ群:154659931
心情吟诵QQ群:190584521 音乐播放器QQ群:206520165
 
pyy123

回复时间:2020-2-12 11:05
dddddddddddddddd

 
弓翁

回复时间:2020-2-12 11:12
谢谢分享!

 
linhw

回复时间:2020-2-12 13:59
谢谢分享

 
xsjch

回复时间:2020-2-12 17:40
谢谢分享!谢谢分享!

 
jsxiaoxd

回复时间:2020-2-12 17:51
谢谢分享。。。

 
nmhhht99

回复时间:2020-2-12 17:59
谢谢分享

 
whlsw86

回复时间:2020-2-12 18:16
谢谢分享!

 
gaoxuan

回复时间:2020-2-12 18:43
感谢楼主分享好片子!!

 
junwei01

回复时间:2020-2-12 19:01
谢谢分享!

 
yycn21

回复时间:2020-2-12 19:36
感谢楼主的无私奉献!

 
戏子2018

回复时间:2020-2-12 19:46
我唯一的爱

 
云山云

回复时间:2020-2-12 19:48
收藏,谢谢楼主分享

 
发新帖 新投票
 回帖
查看积分策略说明快速回复主题
你的用户名: 密码:   免费注册(只要30秒)


启用 Html 代码
使用个人签名
(请您文明上网理性发言!并遵守相关规定
   



Processed in 0.021185 s, 8 q - 无图精简版,sitemap,