发新帖  新投票  回帖 
梦回云阳

发表时间:2020-2-19 10:15

【梦回云阳与您有约】天碟落地·世界女声【WAV+CUE/百度网盘】



梦回云阳 发表在 音乐地带 华声论坛 http://bbs.voc.com.cn/forum-77-1.html


本帖助威记录

ytwmb +1
看了楼主的帖,神马都是浮云
2020-05-29 16:27:26
天空落只小鸟 +1
该帖真有创意,敢发出来是一种勇气!
2020-05-02 22:41:03
小数点2013 +1
你的帖子可以上新闻联播了
2020-04-30 10:55:04
cai326jun +1
一次性收齐!谢谢
2020-04-06 14:37:01
gameppm +1
看了楼主的帖,神马都是浮云
2020-03-29 12:28:11
总计:魅力9点 助威9查看所有助威>>



----------------------------------------------
友情提醒:下载测试资源存放于免费网盘,不保证资源的长期有效;若有任何一方主张版权,请各管管或版版直接删除本帖,不用任何形式的通知我本人,谢谢。

华声论坛 影音帝国 官方QQ群
影视时空|音乐地带 QQ群:140288348 128111319 42933722
音乐快递QQ群:338549863 原声地带QQ群:344590352
高品质单曲QQ群:116060792 心情音乐QQ群:154659931
心情吟诵QQ群:190584521 音乐播放器QQ群:206520165
 
梦回云阳

回复时间:2020-2-19 10:15

专辑名称:世界女声
专辑艺人:群星
发行时间:2010
资源格式:WAV+CUE
专辑简介:
靓绝非凡录音缔造极品,动态凌历尽显碟王本色,HIFI史上罕有动态境界。无以复加,浑然天成音乐感染力无法抵挡。前所未有低频与冲击力弥足珍贵,云集世界各地殿堂级演绎名作,配上顶级录音大师靓绝录制,全套8张碟音色传真无比 层次鲜明,人声通透圆润 器乐真实。

专辑曲目
01.Linde Eder.Once Upon A Dream
02.Anne Karin Kaasa.Gje Meg Handa Di
03.Radka Toneff.The Moon Is A Harsh Mistress
04.Carole Laure.Danse avant de tomber
05.Carol Kidd.Then I'll Be Tires of You
06.Jennifer Warnes.Lights of Lousianne
07.Amanda Mc Broom.Make Me A Kite
08.Esther.Kinderspiele
09.Salena Jones.And I Love You So
10.Judy Collins.Amazing Grace
11.Karen Carpenter.Make Believe It's You First Time
12.Mary Black.The Moon And ST.Christopher
13.Connie Francis.My Happiness
14.Sinead O'Conner.Don't Cay For Me Argentina
15.Bette Midler.Night And Day
16.Rebecca Pidgeon.Spanish Harlem
17.Bridge Over Trouble Wate





----------------------------------------------
友情提醒:下载测试资源存放于免费网盘,不保证资源的长期有效;若有任何一方主张版权,请各管管或版版直接删除本帖,不用任何形式的通知我本人,谢谢。

华声论坛 影音帝国 官方QQ群
影视时空|音乐地带 QQ群:140288348 128111319 42933722
音乐快递QQ群:338549863 原声地带QQ群:344590352
高品质单曲QQ群:116060792 心情音乐QQ群:154659931
心情吟诵QQ群:190584521 音乐播放器QQ群:206520165
 
梦回云阳

回复时间:2020-2-19 10:16

按此在新窗口浏览图片





----------------------------------------------
友情提醒:下载测试资源存放于免费网盘,不保证资源的长期有效;若有任何一方主张版权,请各管管或版版直接删除本帖,不用任何形式的通知我本人,谢谢。

华声论坛 影音帝国 官方QQ群
影视时空|音乐地带 QQ群:140288348 128111319 42933722
音乐快递QQ群:338549863 原声地带QQ群:344590352
高品质单曲QQ群:116060792 心情音乐QQ群:154659931
心情吟诵QQ群:190584521 音乐播放器QQ群:206520165
 
梦回云阳

回复时间:2020-2-19 10:16

按此在新窗口浏览图片





----------------------------------------------
友情提醒:下载测试资源存放于免费网盘,不保证资源的长期有效;若有任何一方主张版权,请各管管或版版直接删除本帖,不用任何形式的通知我本人,谢谢。

华声论坛 影音帝国 官方QQ群
影视时空|音乐地带 QQ群:140288348 128111319 42933722
音乐快递QQ群:338549863 原声地带QQ群:344590352
高品质单曲QQ群:116060792 心情音乐QQ群:154659931
心情吟诵QQ群:190584521 音乐播放器QQ群:206520165
 
梦回云阳

回复时间:2020-2-19 10:16

按此在新窗口浏览图片





----------------------------------------------
友情提醒:下载测试资源存放于免费网盘,不保证资源的长期有效;若有任何一方主张版权,请各管管或版版直接删除本帖,不用任何形式的通知我本人,谢谢。

华声论坛 影音帝国 官方QQ群
影视时空|音乐地带 QQ群:140288348 128111319 42933722
音乐快递QQ群:338549863 原声地带QQ群:344590352
高品质单曲QQ群:116060792 心情音乐QQ群:154659931
心情吟诵QQ群:190584521 音乐播放器QQ群:206520165
 
梦回云阳

回复时间:2020-2-19 10:17

抓轨前检测

按此在新窗口浏览图片


按此在新窗口浏览图片


按此在新窗口浏览图片





----------------------------------------------
友情提醒:下载测试资源存放于免费网盘,不保证资源的长期有效;若有任何一方主张版权,请各管管或版版直接删除本帖,不用任何形式的通知我本人,谢谢。

华声论坛 影音帝国 官方QQ群
影视时空|音乐地带 QQ群:140288348 128111319 42933722
音乐快递QQ群:338549863 原声地带QQ群:344590352
高品质单曲QQ群:116060792 心情音乐QQ群:154659931
心情吟诵QQ群:190584521 音乐播放器QQ群:206520165
 
梦回云阳

回复时间:2020-2-19 10:17
EAC 抓取日志文件

Exact Audio Copy V0.99 prebeta 4 from 23. January 2008

EAC 抓取日志文件从24. 十二月 2019, 14:49

群星 / 世界女声

使用驱动器 :MATSHITADVD-RAM UJ8E0 Adapter: 0 ID: 1

读取模式 : 保护
使用精确流 : 是
废除音频缓冲 : 否
使用 C2 指针 : 否

组合读/写偏移校正 : 0
读取 Lead-In 和 Lead-Out : 否
用静音填充抓取中丢失偏移的采样 : 是
去除首尾静音块 : 否
在 CRC 计算中使用了空样本 : 否
已用接口 : Win NT 及 2000 本地 Win32 接口

所用输出格式 : 内部 WAV 函数
样本格式 : 44.100 Hz;16 Bit;立体声


被抓轨 CD 的 TOC

音轨 | 开始 | 长度 | 起始扇区 | 结尾扇区
--------------------------------------------------
1 | 0:00.00 | 2:56.45 | 0 | 13244
2 | 2:56.45 | 3:55.36 | 13245 | 30905
3 | 6:52.06 | 3:13.37 | 30906 | 45417
4 | 10:05.43 | 3:50.52 | 45418 | 62719
5 | 13:56.20 | 3:54.34 | 62720 | 80303
6 | 17:50.54 | 4:27.61 | 80304 | 100389
7 | 22:18.40 | 4:15.40 | 100390 | 119554
8 | 26:34.05 | 3:14.00 | 119555 | 134104
9 | 29:48.05 | 4:12.60 | 134105 | 153064
10 | 34:00.65 | 3:54.15 | 153065 | 170629
11 | 37:55.05 | 3:12.67 | 170630 | 185096
12 | 41:07.72 | 4:10.31 | 185097 | 203877
13 | 45:18.28 | 2:35.65 | 203878 | 215567
14 | 47:54.18 | 5:38.61 | 215568 | 240978
15 | 53:33.04 | 5:30.08 | 240979 | 265736
16 | 59:03.12 | 3:42.12 | 265737 | 282398
17 | 62:45.24 | 5:48.06 | 282399 | 308504


范围状态及错误

已选择范围

文件名 F:\音频抓轨\群星 - 世界女声.wav

峰值电平 92.1 %
范围质量 100.0 %
复制 CRC 0E2F0841
复制成功

没有错误发生

状态报告结尾




----------------------------------------------
友情提醒:下载测试资源存放于免费网盘,不保证资源的长期有效;若有任何一方主张版权,请各管管或版版直接删除本帖,不用任何形式的通知我本人,谢谢。

华声论坛 影音帝国 官方QQ群
影视时空|音乐地带 QQ群:140288348 128111319 42933722
音乐快递QQ群:338549863 原声地带QQ群:344590352
高品质单曲QQ群:116060792 心情音乐QQ群:154659931
心情吟诵QQ群:190584521 音乐播放器QQ群:206520165
 
梦回云阳

回复时间:2020-2-19 10:18
所有音乐仅供测试及试听,音乐版权归原唱片公司所有,任何人不得用于商业用途!




----------------------------------------------
友情提醒:下载测试资源存放于免费网盘,不保证资源的长期有效;若有任何一方主张版权,请各管管或版版直接删除本帖,不用任何形式的通知我本人,谢谢。

华声论坛 影音帝国 官方QQ群
影视时空|音乐地带 QQ群:140288348 128111319 42933722
音乐快递QQ群:338549863 原声地带QQ群:344590352
高品质单曲QQ群:116060792 心情音乐QQ群:154659931
心情吟诵QQ群:190584521 音乐播放器QQ群:206520165
 
梦回云阳

回复时间:2020-2-19 10:19
天碟落地共8张CD推荐完毕。




----------------------------------------------
友情提醒:下载测试资源存放于免费网盘,不保证资源的长期有效;若有任何一方主张版权,请各管管或版版直接删除本帖,不用任何形式的通知我本人,谢谢。

华声论坛 影音帝国 官方QQ群
影视时空|音乐地带 QQ群:140288348 128111319 42933722
音乐快递QQ群:338549863 原声地带QQ群:344590352
高品质单曲QQ群:116060792 心情音乐QQ群:154659931
心情吟诵QQ群:190584521 音乐播放器QQ群:206520165
 
天地为炉兮

回复时间:2020-2-19 10:30
好久不见

 
mpegk

回复时间:2020-2-19 10:49
谢谢分享

 
abc33

回复时间:2020-2-19 10:59
天碟落地共8张很好,谢谢!

 
九头牛

回复时间:2020-2-19 11:30
按此在新窗口浏览图片

 
悠然6687

回复时间:2020-2-19 11:54

 
弓翁

回复时间:2020-2-19 12:11
谢谢分享!

 
mamaxkk2019

回复时间:2020-2-19 12:24

 
mondxg

回复时间:2020-2-19 13:42
谢谢分享

 
x1234561

回复时间:2020-2-19 14:00
谢谢分享

 
migi2

回复时间:2020-2-19 14:07
谢谢分享

 
wjtang

回复时间:2020-2-19 14:15
谢谢分享

 
发新帖 新投票
 回帖
查看积分策略说明快速回复主题
你的用户名: 密码:   免费注册(只要30秒)


启用 Html 代码
使用个人签名
(请您文明上网理性发言!并遵守相关规定
   



Processed in 0.052460 s, 9 q - 无图精简版,sitemap,