发新帖  新投票  回帖 
梦回云阳

发表时间:2020-3-4 17:21

【梦回云阳与您有约】群星·用101种方式说我爱你CD01【WAV+CUE/百度网盘】



梦回云阳 发表在 音乐地带 华声论坛 http://bbs.voc.com.cn/forum-77-1.html










本帖播放下载于“wu341”的资源,感谢您的分享。

下载测试资源
**** 本内容跟帖回复才可浏览 *****


本帖助威记录

燕子y +1
你的帖子可以上新闻联播了
2020-03-09 13:27:36
台山君健 +1
你的帖子可以上新闻联播了
2020-03-06 12:35:18
总计:魅力2点 助威2查看所有助威>>



----------------------------------------------
友情提醒:下载测试资源存放于免费网盘,不保证资源的长期有效;若有任何一方主张版权,请各管管或版版直接删除本帖,不用任何形式的通知我本人,谢谢。

华声论坛 影音帝国 官方QQ群
影视时空|音乐地带 QQ群:140288348 128111319 42933722
音乐快递QQ群:338549863 原声地带QQ群:344590352
高品质单曲QQ群:116060792 心情音乐QQ群:154659931
心情吟诵QQ群:190584521 音乐播放器QQ群:206520165
 
梦回云阳

回复时间:2020-3-4 17:21

专辑名称:用101种方式说我爱你CD01
专辑艺人:群星
发行时间:2009
资源格式:WAV+CUE
专辑简介:
众位耀星倾情演绎,用101种方式说我爱你!经典歌曲,耳熟能详!101首英文情歌被深情演唱,101种方式说我爱你,101首世界上最受欢迎的英文情歌。


专辑曲目
01.就在这里等待
02.糟糕的一天
03.一个可以哭泣的肩膀
04.迷失在你眼中
05.那是你离去的原因
06.难说抱歉
07.没有你
08.回归爱之路
09.我怎么活
10.女超人
11.永远
12.匆忙
13.永远年轻
14.等待一个像你的女孩
15.吻我
16.我能做点什么
17.对你的爱





----------------------------------------------
友情提醒:下载测试资源存放于免费网盘,不保证资源的长期有效;若有任何一方主张版权,请各管管或版版直接删除本帖,不用任何形式的通知我本人,谢谢。

华声论坛 影音帝国 官方QQ群
影视时空|音乐地带 QQ群:140288348 128111319 42933722
音乐快递QQ群:338549863 原声地带QQ群:344590352
高品质单曲QQ群:116060792 心情音乐QQ群:154659931
心情吟诵QQ群:190584521 音乐播放器QQ群:206520165
 
梦回云阳

回复时间:2020-3-4 17:23

按此在新窗口浏览图片





----------------------------------------------
友情提醒:下载测试资源存放于免费网盘,不保证资源的长期有效;若有任何一方主张版权,请各管管或版版直接删除本帖,不用任何形式的通知我本人,谢谢。

华声论坛 影音帝国 官方QQ群
影视时空|音乐地带 QQ群:140288348 128111319 42933722
音乐快递QQ群:338549863 原声地带QQ群:344590352
高品质单曲QQ群:116060792 心情音乐QQ群:154659931
心情吟诵QQ群:190584521 音乐播放器QQ群:206520165
 
梦回云阳

回复时间:2020-3-4 17:23

按此在新窗口浏览图片





----------------------------------------------
友情提醒:下载测试资源存放于免费网盘,不保证资源的长期有效;若有任何一方主张版权,请各管管或版版直接删除本帖,不用任何形式的通知我本人,谢谢。

华声论坛 影音帝国 官方QQ群
影视时空|音乐地带 QQ群:140288348 128111319 42933722
音乐快递QQ群:338549863 原声地带QQ群:344590352
高品质单曲QQ群:116060792 心情音乐QQ群:154659931
心情吟诵QQ群:190584521 音乐播放器QQ群:206520165
 
梦回云阳

回复时间:2020-3-4 17:24

按此在新窗口浏览图片





----------------------------------------------
友情提醒:下载测试资源存放于免费网盘,不保证资源的长期有效;若有任何一方主张版权,请各管管或版版直接删除本帖,不用任何形式的通知我本人,谢谢。

华声论坛 影音帝国 官方QQ群
影视时空|音乐地带 QQ群:140288348 128111319 42933722
音乐快递QQ群:338549863 原声地带QQ群:344590352
高品质单曲QQ群:116060792 心情音乐QQ群:154659931
心情吟诵QQ群:190584521 音乐播放器QQ群:206520165
 
梦回云阳

回复时间:2020-3-4 17:25

抓轨前检测

按此在新窗口浏览图片


按此在新窗口浏览图片


按此在新窗口浏览图片





----------------------------------------------
友情提醒:下载测试资源存放于免费网盘,不保证资源的长期有效;若有任何一方主张版权,请各管管或版版直接删除本帖,不用任何形式的通知我本人,谢谢。

华声论坛 影音帝国 官方QQ群
影视时空|音乐地带 QQ群:140288348 128111319 42933722
音乐快递QQ群:338549863 原声地带QQ群:344590352
高品质单曲QQ群:116060792 心情音乐QQ群:154659931
心情吟诵QQ群:190584521 音乐播放器QQ群:206520165
 
梦回云阳

回复时间:2020-3-4 17:26
EAC 抓取日志文件

Exact Audio Copy V0.99 prebeta 4 from 23. January 2008

EAC 抓取日志文件从26. 二月 2020, 15:18

群星 / 用101种方式说我爱你CD01

使用驱动器 :MATSHITADVD-RAM UJ8E0 Adapter: 0 ID: 1

读取模式 : 保护
使用精确流 : 是
废除音频缓冲 : 否
使用 C2 指针 : 否

组合读/写偏移校正 : 0
读取 Lead-In 和 Lead-Out : 否
用静音填充抓取中丢失偏移的采样 : 是
去除首尾静音块 : 否
在 CRC 计算中使用了空样本 : 否
已用接口 : Win NT 及 2000 本地 Win32 接口

所用输出格式 : 内部 WAV 函数
样本格式 : 44.100 Hz;16 Bit;立体声


被抓轨 CD 的 TOC

音轨 | 开始 | 长度 | 起始扇区 | 结尾扇区
--------------------------------------------------
1 | 0:00.00 | 4:26.17 | 0 | 19966
2 | 4:26.17 | 3:57.10 | 19967 | 37751
3 | 8:23.27 | 3:25.03 | 37752 | 53129
4 | 11:48.30 | 3:35.37 | 53130 | 69291
5 | 15:23.67 | 4:15.44 | 69292 | 88460
6 | 19:39.36 | 3:50.74 | 88461 | 105784
7 | 23:30.35 | 4:36.49 | 105785 | 126533
8 | 28:07.09 | 4:39.51 | 126534 | 147509
9 | 32:46.60 | 4:59.62 | 147510 | 169996
10 | 37:46.47 | 5:50.10 | 169997 | 196256
11 | 43:36.57 | 4:50.39 | 196257 | 218045
12 | 48:27.21 | 4:56.39 | 218046 | 240284
13 | 53:23.60 | 3:47.74 | 240285 | 257383
14 | 57:11.59 | 4:50.20 | 257384 | 279153
15 | 62:02.04 | 3:30.30 | 279154 | 294933
16 | 65:32.34 | 4:18.27 | 294934 | 314310
17 | 69:50.61 | 3:23.30 | 314311 | 329565


范围状态及错误

已选择范围

文件名 F:\音频抓轨\群星 - 用101种方式说我爱你CD01.wav

峰值电平 100.0 %
范围质量 99.9 %
复制 CRC E168353D
复制成功

没有错误发生

状态报告结尾




----------------------------------------------
友情提醒:下载测试资源存放于免费网盘,不保证资源的长期有效;若有任何一方主张版权,请各管管或版版直接删除本帖,不用任何形式的通知我本人,谢谢。

华声论坛 影音帝国 官方QQ群
影视时空|音乐地带 QQ群:140288348 128111319 42933722
音乐快递QQ群:338549863 原声地带QQ群:344590352
高品质单曲QQ群:116060792 心情音乐QQ群:154659931
心情吟诵QQ群:190584521 音乐播放器QQ群:206520165
 
梦回云阳

回复时间:2020-3-4 17:26
所有音乐仅供测试及试听,音乐版权归原唱片公司所有,任何人不得用于商业用途!




----------------------------------------------
友情提醒:下载测试资源存放于免费网盘,不保证资源的长期有效;若有任何一方主张版权,请各管管或版版直接删除本帖,不用任何形式的通知我本人,谢谢。

华声论坛 影音帝国 官方QQ群
影视时空|音乐地带 QQ群:140288348 128111319 42933722
音乐快递QQ群:338549863 原声地带QQ群:344590352
高品质单曲QQ群:116060792 心情音乐QQ群:154659931
心情吟诵QQ群:190584521 音乐播放器QQ群:206520165
 
雨水煮茶

回复时间:2020-3-4 17:35
感谢分享,辛苦!

 
shenmafuyun1999

回复时间:2020-3-4 18:05
谢谢分享

 
etom999

回复时间:2020-3-4 18:32
谢谢分享

 
qiqi8007

回复时间:2020-3-5 10:28
谢谢分享。

 
tsy651001

回复时间:2020-3-5 10:46
谢谢分享!

 
傻妞天女

回复时间:2020-3-5 10:55

 
傻妞天女

回复时间:2020-3-5 10:55

 
wjtang

回复时间:2020-3-5 15:06
谢谢分享!

 
yycn21

回复时间:2020-3-6 11:08
感谢分享,辛苦了!

 
台山君健

回复时间:2020-3-6 12:37
都是经典好歌,谢谢分享!

 
ashige

回复时间:2020-3-6 15:44
谢谢分享!!!!!!!!!!!!!!!!!!!!!!!!!!!!!!!!!!!!!!!

 
398228

回复时间:2020-3-6 22:16
经典好歌,谢谢版主!

 
发新帖 新投票
 回帖
查看积分策略说明快速回复主题
你的用户名: 密码:   免费注册(只要30秒)


启用 Html 代码
使用个人签名
(请您文明上网理性发言!并遵守相关规定
   



Processed in 0.032701 s, 8 q - 无图精简版,sitemap,