发新帖  新投票  回帖 
qfcheng

发表时间:2020-3-6 20:22

陈佳《又见邓丽君 DSD》[正版CD低速原抓WAV+CUE]



qfcheng 发表在 音乐地带 华声论坛 http://bbs.voc.com.cn/forum-77-1.html

按此在新窗口浏览图片
按此在新窗口浏览图片

专辑名称:又见邓丽君 DSD
专辑艺人:陈佳
唱片公司:天艺文化传播有限公司
出版公司:齐鲁电子音像出版社
条形码:9787884413560
发行时间:2017年8月
资源格式:正版CD低速原抓WAV+CUE

专辑简介:

她的嗓音天生丽质、温婉亮丽,听起来更有一种一尘不染的声音气质,陈佳的嗓音独特,细腻甜美,韵味十足,同一首歌,不一样的感觉。

下载压缩包内附高清无码大图


专辑曲目

01 千言万语
02 你怎么说
03 星(粤语)
04 何日君再来
05 北国之春(日)
06 甜蜜蜜
07 山茶花
08 恰似你的温柔
09 又见炊烟
10 小城故事
11 月亮代表我的心
12 在水一方

**** 本内容跟帖回复才可浏览 *****

本帖助威记录

钢镚X +1
感谢楼主分享好歌曲!
2020-03-11 12:53:37
总计:魅力1点 助威1查看所有助威>>



----------------------------------------------


梦飞音乐的博客
http://blog.sina.com.cn/u/2590775214



 
qfcheng

回复时间:2020-3-6 20:55
Exact Audio Copy V1.3 from 2. September 2016

EAC 抓取日志文件从23. 十月 2017, 12:25

未知艺术家 / 未知标题

使用驱动器 :BENQ DVD DC DW20AS Adapter: 1 ID: 0

读取模式 : 可靠Secure
使用精确流 : 是
清空音频缓存 : 是
使用 C2 指示器 : 否

读取偏移校正: : 0
读取 Lead-In 和 Lead-Out : 否
用静音填充抓取中丢失偏移的采样 : 是
去除首尾静音块 : 否
在CRC 计算中使用了空样本 : 是
已用接口 : Win NT 及 2000 本地 Win32 接口

所用输出模式: : 内部 WAV 函数
样本格式 : 44.100 Hz; 16 Bit; 立体声


已抓取 CD 的 TOC

音轨 | 起始 | 长度 | 起始扇区 | 结束扇区
--------------------------------------------
1 | 0:00.00 | 3:52.60 | 0 | 17459
2 | 3:52.60 | 4:29.58 | 17460 | 37692
3 | 8:22.43 | 4:48.67 | 37693 | 59359
4 | 13:11.35 | 3:12.58 | 59360 | 73817
5 | 16:24.18 | 4:30.08 | 73818 | 94075
6 | 20:54.26 | 3:55.17 | 94076 | 111717
7 | 24:49.43 | 3:51.69 | 111718 | 129111
8 | 28:41.37 | 4:53.59 | 129112 | 151145
9 | 33:35.21 | 3:14.45 | 151146 | 165740
10 | 36:49.66 | 2:55.57 | 165741 | 178922
11 | 39:45.48 | 3:48.21 | 178923 | 196043
12 | 43:33.69 | 4:00.38 | 196044 | 214081


范围状态及错误

已选择范围

文件名 F:\炫音音乐论坛原抓上传区\陈佳 又见邓丽君.wav

峰值电平 100.0 %
抓取速度 3.0 X
范围质量 100.0 %
测试 CRC 4A2EABEC
复制 CRC 4A2EABEC
复制成功

没有错误发生

状态报告结尾




----------------------------------------------


梦飞音乐的博客
http://blog.sina.com.cn/u/2590775214



 
gaoxuan

回复时间:2020-3-6 21:11
感谢楼主分享好歌曲!下来听听。

 
wjtang

回复时间:2020-3-6 23:17
谢谢楼主分享

 
etom999

回复时间:2020-3-7 07:09
谢谢分享

 
阿弥托佛

回复时间:2020-3-7 08:57
谢谢分享!




----------------------------------------------

佑天佑地佑人 送福送禄送寿
看经典美图到三晋!



 
阿弥托佛

回复时间:2020-3-7 08:57
谢谢分享!




----------------------------------------------

佑天佑地佑人 送福送禄送寿
看经典美图到三晋!



 
sh888sbr

回复时间:2020-3-7 09:39
喜欢邓丽君

 
sdlcljj

回复时间:2020-3-8 09:58
楼主辛苦感谢分享




----------------------------------------------
厚德载物,大爱无疆
 
zhangyp390

回复时间:2020-3-10 15:19
感谢楼主分享

 
盗花香帅

回复时间:2020-3-10 22:36
感谢楼主

 
悠然6687

回复时间:2020-3-10 23:08

 
钢镚X

回复时间:2020-3-11 12:53
感谢楼主分享好歌曲!

 
zzb2760

回复时间:2020-3-16 20:37
好歌好听好声音.好歌天天送给你

 
qianlijun888

回复时间:2020-3-17 08:49
感谢楼主分享

 
gaoquanwen

回复时间:2020-3-17 23:53
很喜欢这种邓丽君的味道!

 
寒风234

回复时间:2020-3-18 11:33
感谢楼主分享好歌曲!下来听听

 
hkch6413

回复时间:2020-3-18 19:40
谢谢楼主分享

 
aopa

回复时间:2020-3-18 23:21
感谢楼主分享好歌曲!下来听听

 
大白菜1

回复时间:2020-3-19 10:45
谢谢分享。辛苦。

 
发新帖 新投票
 回帖
查看积分策略说明快速回复主题
你的用户名: 密码:   免费注册(只要30秒)


启用 Html 代码
使用个人签名
(请您文明上网理性发言!并遵守相关规定
   



Processed in 0.026838 s, 8 q - 无图精简版,sitemap,