发新帖  新投票  回帖 
梦回云阳

发表时间:2020-3-9 17:34

【梦回云阳与您有约】群星·用101种方式说我爱你CD02【WAV+CUE/百度网盘】



梦回云阳 发表在 音乐地带 华声论坛 http://bbs.voc.com.cn/forum-77-1.html











**** 本内容跟帖回复才可浏览 *****



[本帖最后由 梦回云阳 于 2020-3-10 10:07 编辑]




----------------------------------------------
友情提醒:下载测试资源存放于免费网盘,不保证资源的长期有效;若有任何一方主张版权,请各管管或版版直接删除本帖,不用任何形式的通知我本人,谢谢。

华声论坛 影音帝国 官方QQ群
影视时空|音乐地带 QQ群:140288348 128111319 42933722
音乐快递QQ群:338549863 原声地带QQ群:344590352
高品质单曲QQ群:116060792 心情音乐QQ群:154659931
心情吟诵QQ群:190584521 音乐播放器QQ群:206520165
 
梦回云阳

回复时间:2020-3-9 17:35

专辑名称:用101种方式说我爱你CD02
专辑艺人:群星
发行时间:2009
资源格式:WAV+CUE
专辑简介:
众位耀星倾情演绎,用101种方式说我爱你!经典歌曲,耳熟能详!101首英文情歌被深情演唱,101种方式说我爱你,101首世界上最受欢迎的英文情歌。

专辑曲目
01.为你疯狂
02.如果我们一起坚持
03.如果你现在还不了解我
04.玫瑰之吻
05.想你想疯了
06.康照来了
07.字
08.只是另一天
09.手中的天堂
10.爱就是爱
11.时光倒流
12.真实
13.想念你
14.爱改变一切
15.在你怀里永恒
16.我一定来
17.属于你





----------------------------------------------
友情提醒:下载测试资源存放于免费网盘,不保证资源的长期有效;若有任何一方主张版权,请各管管或版版直接删除本帖,不用任何形式的通知我本人,谢谢。

华声论坛 影音帝国 官方QQ群
影视时空|音乐地带 QQ群:140288348 128111319 42933722
音乐快递QQ群:338549863 原声地带QQ群:344590352
高品质单曲QQ群:116060792 心情音乐QQ群:154659931
心情吟诵QQ群:190584521 音乐播放器QQ群:206520165
 
梦回云阳

回复时间:2020-3-9 17:36

按此在新窗口浏览图片





----------------------------------------------
友情提醒:下载测试资源存放于免费网盘,不保证资源的长期有效;若有任何一方主张版权,请各管管或版版直接删除本帖,不用任何形式的通知我本人,谢谢。

华声论坛 影音帝国 官方QQ群
影视时空|音乐地带 QQ群:140288348 128111319 42933722
音乐快递QQ群:338549863 原声地带QQ群:344590352
高品质单曲QQ群:116060792 心情音乐QQ群:154659931
心情吟诵QQ群:190584521 音乐播放器QQ群:206520165
 
梦回云阳

回复时间:2020-3-9 17:36

按此在新窗口浏览图片





----------------------------------------------
友情提醒:下载测试资源存放于免费网盘,不保证资源的长期有效;若有任何一方主张版权,请各管管或版版直接删除本帖,不用任何形式的通知我本人,谢谢。

华声论坛 影音帝国 官方QQ群
影视时空|音乐地带 QQ群:140288348 128111319 42933722
音乐快递QQ群:338549863 原声地带QQ群:344590352
高品质单曲QQ群:116060792 心情音乐QQ群:154659931
心情吟诵QQ群:190584521 音乐播放器QQ群:206520165
 
梦回云阳

回复时间:2020-3-9 17:37

按此在新窗口浏览图片





----------------------------------------------
友情提醒:下载测试资源存放于免费网盘,不保证资源的长期有效;若有任何一方主张版权,请各管管或版版直接删除本帖,不用任何形式的通知我本人,谢谢。

华声论坛 影音帝国 官方QQ群
影视时空|音乐地带 QQ群:140288348 128111319 42933722
音乐快递QQ群:338549863 原声地带QQ群:344590352
高品质单曲QQ群:116060792 心情音乐QQ群:154659931
心情吟诵QQ群:190584521 音乐播放器QQ群:206520165
 
梦回云阳

回复时间:2020-3-9 17:38

抓轨前检测

按此在新窗口浏览图片


按此在新窗口浏览图片


按此在新窗口浏览图片





----------------------------------------------
友情提醒:下载测试资源存放于免费网盘,不保证资源的长期有效;若有任何一方主张版权,请各管管或版版直接删除本帖,不用任何形式的通知我本人,谢谢。

华声论坛 影音帝国 官方QQ群
影视时空|音乐地带 QQ群:140288348 128111319 42933722
音乐快递QQ群:338549863 原声地带QQ群:344590352
高品质单曲QQ群:116060792 心情音乐QQ群:154659931
心情吟诵QQ群:190584521 音乐播放器QQ群:206520165
 
梦回云阳

回复时间:2020-3-9 17:38
EAC 抓取日志文件

Exact Audio Copy V0.99 prebeta 4 from 23. January 2008

EAC 抓取日志文件从26. 二月 2020, 17:02

群星 / 用101种方式说我爱你CD02

使用驱动器 :MATSHITADVD-RAM UJ8E0 Adapter: 0 ID: 1

读取模式 : 保护
使用精确流 : 是
废除音频缓冲 : 否
使用 C2 指针 : 否

组合读/写偏移校正 : 0
读取 Lead-In 和 Lead-Out : 否
用静音填充抓取中丢失偏移的采样 : 是
去除首尾静音块 : 否
在 CRC 计算中使用了空样本 : 否
已用接口 : Win NT 及 2000 本地 Win32 接口

所用输出格式 : 内部 WAV 函数
样本格式 : 44.100 Hz;16 Bit;立体声


被抓轨 CD 的 TOC

音轨 | 开始 | 长度 | 起始扇区 | 结尾扇区
--------------------------------------------------
1 | 0:00.00 | 4:05.61 | 0 | 18435
2 | 4:05.61 | 4:12.20 | 18436 | 37355
3 | 8:18.06 | 3:28.27 | 37356 | 52982
4 | 11:46.33 | 4:48.60 | 52983 | 74642
5 | 16:35.18 | 3:56.57 | 74643 | 92399
6 | 20:32.00 | 4:18.30 | 92400 | 111779
7 | 24:50.30 | 3:31.04 | 111780 | 127608
8 | 28:21.34 | 4:21.23 | 127609 | 147206
9 | 32:42.57 | 4:22.34 | 147207 | 166890
10 | 37:05.16 | 3:53.47 | 166891 | 184412
11 | 40:58.63 | 4:27.70 | 184413 | 204507
12 | 45:26.58 | 5:42.08 | 204508 | 230165
13 | 51:08.66 | 4:05.44 | 230166 | 248584
14 | 55:14.35 | 4:29.60 | 248585 | 268819
15 | 59:44.20 | 4:38.60 | 268820 | 289729
16 | 64:23.05 | 5:50.28 | 289730 | 316007
17 | 70:13.33 | 3:27.28 | 316008 | 331560


范围状态及错误

已选择范围

文件名 F:\音频抓轨\群星 - 用101种方式说我爱你CD02.wav

峰值电平 99.9 %
范围质量 100.0 %
复制 CRC 18B642A5
复制成功

没有错误发生

状态报告结尾




----------------------------------------------
友情提醒:下载测试资源存放于免费网盘,不保证资源的长期有效;若有任何一方主张版权,请各管管或版版直接删除本帖,不用任何形式的通知我本人,谢谢。

华声论坛 影音帝国 官方QQ群
影视时空|音乐地带 QQ群:140288348 128111319 42933722
音乐快递QQ群:338549863 原声地带QQ群:344590352
高品质单曲QQ群:116060792 心情音乐QQ群:154659931
心情吟诵QQ群:190584521 音乐播放器QQ群:206520165
 
梦回云阳

回复时间:2020-3-9 17:38
所有音乐仅供测试及试听,音乐版权归原唱片公司所有,任何人不得用于商业用途!




----------------------------------------------
友情提醒:下载测试资源存放于免费网盘,不保证资源的长期有效;若有任何一方主张版权,请各管管或版版直接删除本帖,不用任何形式的通知我本人,谢谢。

华声论坛 影音帝国 官方QQ群
影视时空|音乐地带 QQ群:140288348 128111319 42933722
音乐快递QQ群:338549863 原声地带QQ群:344590352
高品质单曲QQ群:116060792 心情音乐QQ群:154659931
心情吟诵QQ群:190584521 音乐播放器QQ群:206520165
 
燕子y

回复时间:2020-3-9 18:45
  谢谢分享精彩




----------------------------------------------
开心时听音乐是入耳

伤心时听音乐是入心
 
etom999

回复时间:2020-3-9 19:20
谢谢分享

 
走在最前面

回复时间:2020-3-9 19:52
群星·用101种方式说我爱你CD01【WAV群星·用101种方式说我爱你CD01【WAV群星·用101种方式说我爱你CD01【WAV

 
gaoxuan

回复时间:2020-3-10 01:43
音质不错,喜欢,非常感谢,辛苦了!!

 
阿弥托佛

回复时间:2020-3-10 09:18
谢谢分享!




----------------------------------------------

佑天佑地佑人 送福送禄送寿
看经典美图到三晋!



 
wjtang

回复时间:2020-3-10 09:56
谢谢分享!

 
lzb_zxm

回复时间:2020-3-10 14:21
第一集之后,好久才看到第二集。多谢分享!

 
雨水煮茶

回复时间:2020-3-10 15:09
感谢分享,辛苦

 
yycn21

回复时间:2020-3-10 16:35
谢谢分享!

 
shenmafuyun1999

回复时间:2020-3-11 20:22
谢谢分享

 
钱墟巷

回复时间:2020-3-15 14:55

 
Koko2019

回复时间:2020-3-15 16:36
谢谢分享

 
发新帖 新投票
 回帖
查看积分策略说明快速回复主题
你的用户名: 密码:   免费注册(只要30秒)


启用 Html 代码
使用个人签名
(请您文明上网理性发言!并遵守相关规定
   



Processed in 0.030505 s, 8 q - 无图精简版,sitemap,