发新帖  新投票  回帖 
梦回云阳

发表时间:2020-3-19 17:52

【梦回云阳与您有约】群星·用101种方式说我爱你CD04【WAV+CUE/百度网盘】



梦回云阳 发表在 音乐地带 华声论坛 http://bbs.voc.com.cn/forum-77-1.html










**** 本内容跟帖回复才可浏览 *****


本帖助威记录

九头牛 +1
天啊,这还是帖子吗?简直是神作
2020-03-26 11:20:56
总计:魅力1点 助威1查看所有助威>>



----------------------------------------------
友情提醒:下载测试资源存放于免费网盘,不保证资源的长期有效;若有任何一方主张版权,请各管管或版版直接删除本帖,不用任何形式的通知我本人,谢谢。

华声论坛 影音帝国 官方QQ群
影视时空|音乐地带 QQ群:140288348 128111319 42933722
音乐快递QQ群:338549863 原声地带QQ群:344590352
高品质单曲QQ群:116060792 心情音乐QQ群:154659931
心情吟诵QQ群:190584521 音乐播放器QQ群:206520165
 
梦回云阳

回复时间:2020-3-19 17:53

专辑名称:用101种方式说我爱你CD04
专辑艺人:群星
发行时间:2009
资源格式:WAV+CUE
专辑简介:
众位耀星倾情演绎,用101种方式说我爱你!经典歌曲,耳熟能详!101首英文情歌被深情演唱,101种方式说我爱你,101首世界上最受欢迎的英文情歌。


专辑曲目
01.赔付所有
02.爱的荣耀
03.在你与你
04.那可能是你
05.我敢对天发誓
06.我会成为你的一切
07.再一次
08.我永远爱你
09.等一会儿
10.堕落
11.我该如何告诉她
12.引领我
13.我们不要放弃
14.启航
15.我的优点
16.风之女
17.再见我的爱人





----------------------------------------------
友情提醒:下载测试资源存放于免费网盘,不保证资源的长期有效;若有任何一方主张版权,请各管管或版版直接删除本帖,不用任何形式的通知我本人,谢谢。

华声论坛 影音帝国 官方QQ群
影视时空|音乐地带 QQ群:140288348 128111319 42933722
音乐快递QQ群:338549863 原声地带QQ群:344590352
高品质单曲QQ群:116060792 心情音乐QQ群:154659931
心情吟诵QQ群:190584521 音乐播放器QQ群:206520165
 
梦回云阳

回复时间:2020-3-19 17:54

按此在新窗口浏览图片





----------------------------------------------
友情提醒:下载测试资源存放于免费网盘,不保证资源的长期有效;若有任何一方主张版权,请各管管或版版直接删除本帖,不用任何形式的通知我本人,谢谢。

华声论坛 影音帝国 官方QQ群
影视时空|音乐地带 QQ群:140288348 128111319 42933722
音乐快递QQ群:338549863 原声地带QQ群:344590352
高品质单曲QQ群:116060792 心情音乐QQ群:154659931
心情吟诵QQ群:190584521 音乐播放器QQ群:206520165
 
梦回云阳

回复时间:2020-3-19 17:54

按此在新窗口浏览图片





----------------------------------------------
友情提醒:下载测试资源存放于免费网盘,不保证资源的长期有效;若有任何一方主张版权,请各管管或版版直接删除本帖,不用任何形式的通知我本人,谢谢。

华声论坛 影音帝国 官方QQ群
影视时空|音乐地带 QQ群:140288348 128111319 42933722
音乐快递QQ群:338549863 原声地带QQ群:344590352
高品质单曲QQ群:116060792 心情音乐QQ群:154659931
心情吟诵QQ群:190584521 音乐播放器QQ群:206520165
 
梦回云阳

回复时间:2020-3-19 17:54

按此在新窗口浏览图片





----------------------------------------------
友情提醒:下载测试资源存放于免费网盘,不保证资源的长期有效;若有任何一方主张版权,请各管管或版版直接删除本帖,不用任何形式的通知我本人,谢谢。

华声论坛 影音帝国 官方QQ群
影视时空|音乐地带 QQ群:140288348 128111319 42933722
音乐快递QQ群:338549863 原声地带QQ群:344590352
高品质单曲QQ群:116060792 心情音乐QQ群:154659931
心情吟诵QQ群:190584521 音乐播放器QQ群:206520165
 
梦回云阳

回复时间:2020-3-19 17:55
EAC 抓取日志文件

Exact Audio Copy V0.99 prebeta 4 from 23. January 2008

EAC 抓取日志文件从27. 二月 2020, 13:05

群星 / 用101种方式说我爱你CD04

使用驱动器 :MATSHITADVD-RAM UJ8E0 Adapter: 0 ID: 1

读取模式 : 保护
使用精确流 : 是
废除音频缓冲 : 否
使用 C2 指针 : 否

组合读/写偏移校正 : 0
读取 Lead-In 和 Lead-Out : 否
用静音填充抓取中丢失偏移的采样 : 是
去除首尾静音块 : 否
在 CRC 计算中使用了空样本 : 否
已用接口 : Win NT 及 2000 本地 Win32 接口

所用输出格式 : 内部 WAV 函数
样本格式 : 44.100 Hz;16 Bit;立体声


被抓轨 CD 的 TOC

音轨 | 开始 | 长度 | 起始扇区 | 结尾扇区
--------------------------------------------------
1 | 0:00.00 | 3:27.42 | 0 | 15566
2 | 3:27.42 | 4:23.59 | 15567 | 35350
3 | 7:51.26 | 3:30.21 | 35351 | 51121
4 | 11:21.47 | 4:15.01 | 51122 | 70247
5 | 15:36.48 | 4:21.67 | 70248 | 89889
6 | 19:58.40 | 4:09.51 | 89890 | 108615
7 | 24:08.16 | 3:32.48 | 108616 | 124563
8 | 27:40.64 | 4:01.25 | 124564 | 142663
9 | 31:42.14 | 3:42.54 | 142664 | 159367
10 | 35:24.68 | 4:02.29 | 159368 | 177546
11 | 39:27.22 | 4:20.10 | 177547 | 197056
12 | 43:47.32 | 2:47.66 | 197057 | 209647
13 | 46:35.23 | 3:40.29 | 209648 | 226176
14 | 50:15.52 | 4:18.17 | 226177 | 245543
15 | 54:33.69 | 5:28.11 | 245544 | 270154
16 | 60:02.05 | 4:49.05 | 270155 | 291834
17 | 64:51.10 | 4:18.38 | 291835 | 311222


范围状态及错误

已选择范围

文件名 F:\音频抓轨\群星 - 用101种方式说我爱你CD04.wav

峰值电平 99.9 %
范围质量 99.9 %
复制 CRC 8C4BE01B
复制成功

没有错误发生

状态报告结尾




----------------------------------------------
友情提醒:下载测试资源存放于免费网盘,不保证资源的长期有效;若有任何一方主张版权,请各管管或版版直接删除本帖,不用任何形式的通知我本人,谢谢。

华声论坛 影音帝国 官方QQ群
影视时空|音乐地带 QQ群:140288348 128111319 42933722
音乐快递QQ群:338549863 原声地带QQ群:344590352
高品质单曲QQ群:116060792 心情音乐QQ群:154659931
心情吟诵QQ群:190584521 音乐播放器QQ群:206520165
 
梦回云阳

回复时间:2020-3-19 17:55
所有音乐仅供测试及试听,音乐版权归原唱片公司所有,任何人不得用于商业用途!




----------------------------------------------
友情提醒:下载测试资源存放于免费网盘,不保证资源的长期有效;若有任何一方主张版权,请各管管或版版直接删除本帖,不用任何形式的通知我本人,谢谢。

华声论坛 影音帝国 官方QQ群
影视时空|音乐地带 QQ群:140288348 128111319 42933722
音乐快递QQ群:338549863 原声地带QQ群:344590352
高品质单曲QQ群:116060792 心情音乐QQ群:154659931
心情吟诵QQ群:190584521 音乐播放器QQ群:206520165
 
etom999

回复时间:2020-3-19 17:58
谢谢分享

 
雨水煮茶

回复时间:2020-3-19 17:59
感谢分享
辛苦!

 
ztm99

回复时间:2020-3-19 18:23
感谢大神~~~

 
yycn21

回复时间:2020-3-19 19:55
谢谢分享

 
sdlzq20081968

回复时间:2020-3-20 09:59
感谢分享

 
wjtang

回复时间:2020-3-20 15:37
谢谢分享

 
LX13531

回复时间:2020-3-21 22:56
谢谢继续推介英文情歌

 
w601988

回复时间:2020-3-21 23:25
17.再见我的爱人




----------------------------------------------
 
nhjyk

回复时间:2020-3-22 00:05
还挺好听

 
wybylnsy1

回复时间:2020-3-22 10:51
谢谢分享

 
tianyu778

回复时间:2020-3-22 12:22
好歌好经典

 
商洛阳春

回复时间:2020-3-25 10:35
谢谢分享

 
乌龙茶2017

回复时间:2020-3-26 10:10
谢谢分享。

 
发新帖 新投票
 回帖
查看积分策略说明快速回复主题
你的用户名: 密码:   免费注册(只要30秒)


启用 Html 代码
使用个人签名
(请您文明上网理性发言!并遵守相关规定
   



Processed in 0.024828 s, 8 q - 无图精简版,sitemap,