发新帖  新投票  回帖 
梦回云阳

发表时间:2020-3-28 15:28

【梦回云阳与您有约】群星·用101种方式说我爱你CD05【WAV+CUE/百度网盘】



梦回云阳 发表在 音乐地带 华声论坛 http://bbs.voc.com.cn/forum-77-1.html










**** 本内容跟帖回复才可浏览 *****


本帖助威记录

夏星星 +1
能够在如此精彩的帖子留下自己的网名是多么骄傲的一件事啊
2020-04-26 20:06:00
总计:魅力1点 助威1查看所有助威>>



----------------------------------------------
友情提醒:下载测试资源存放于免费网盘,不保证资源的长期有效;若有任何一方主张版权,请各管管或版版直接删除本帖,不用任何形式的通知我本人,谢谢。

华声论坛 影音帝国 官方QQ群
影视时空|音乐地带 QQ群:140288348 128111319 42933722
音乐快递QQ群:338549863 原声地带QQ群:344590352
高品质单曲QQ群:116060792 心情音乐QQ群:154659931
心情吟诵QQ群:190584521 音乐播放器QQ群:206520165
 
梦回云阳

回复时间:2020-3-28 15:29

专辑名称:用101种方式说我爱你CD05
专辑艺人:群星
发行时间:2009
资源格式:WAV+CUE
专辑简介:
众位耀星倾情演绎,用101种方式说我爱你!经典歌曲,耳熟能详!101首英文情歌被深情演唱,101种方式说我爱你,101首世界上最受欢迎的英文情歌。


专辑曲目
01.你在哪里
02.逆年
03.暴徒
04.你依然
05.此是可悲
06.我的宝贝
07.爱的力量
08.如果你再回到我怀中
09.当她舞蹈
10.你带走了我的心
11.我想知道爱是什么
12.驾车旅行
13.我不想论及
14.愚蠢的心眺
15.代表作
16.如果你现在离开我
17.从远处





----------------------------------------------
友情提醒:下载测试资源存放于免费网盘,不保证资源的长期有效;若有任何一方主张版权,请各管管或版版直接删除本帖,不用任何形式的通知我本人,谢谢。

华声论坛 影音帝国 官方QQ群
影视时空|音乐地带 QQ群:140288348 128111319 42933722
音乐快递QQ群:338549863 原声地带QQ群:344590352
高品质单曲QQ群:116060792 心情音乐QQ群:154659931
心情吟诵QQ群:190584521 音乐播放器QQ群:206520165
 
梦回云阳

回复时间:2020-3-28 15:30

按此在新窗口浏览图片





----------------------------------------------
友情提醒:下载测试资源存放于免费网盘,不保证资源的长期有效;若有任何一方主张版权,请各管管或版版直接删除本帖,不用任何形式的通知我本人,谢谢。

华声论坛 影音帝国 官方QQ群
影视时空|音乐地带 QQ群:140288348 128111319 42933722
音乐快递QQ群:338549863 原声地带QQ群:344590352
高品质单曲QQ群:116060792 心情音乐QQ群:154659931
心情吟诵QQ群:190584521 音乐播放器QQ群:206520165
 
梦回云阳

回复时间:2020-3-28 15:30

按此在新窗口浏览图片





----------------------------------------------
友情提醒:下载测试资源存放于免费网盘,不保证资源的长期有效;若有任何一方主张版权,请各管管或版版直接删除本帖,不用任何形式的通知我本人,谢谢。

华声论坛 影音帝国 官方QQ群
影视时空|音乐地带 QQ群:140288348 128111319 42933722
音乐快递QQ群:338549863 原声地带QQ群:344590352
高品质单曲QQ群:116060792 心情音乐QQ群:154659931
心情吟诵QQ群:190584521 音乐播放器QQ群:206520165
 
梦回云阳

回复时间:2020-3-28 15:31

按此在新窗口浏览图片





----------------------------------------------
友情提醒:下载测试资源存放于免费网盘,不保证资源的长期有效;若有任何一方主张版权,请各管管或版版直接删除本帖,不用任何形式的通知我本人,谢谢。

华声论坛 影音帝国 官方QQ群
影视时空|音乐地带 QQ群:140288348 128111319 42933722
音乐快递QQ群:338549863 原声地带QQ群:344590352
高品质单曲QQ群:116060792 心情音乐QQ群:154659931
心情吟诵QQ群:190584521 音乐播放器QQ群:206520165
 
梦回云阳

回复时间:2020-3-28 15:33

抓轨前检测

按此在新窗口浏览图片


按此在新窗口浏览图片


按此在新窗口浏览图片





----------------------------------------------
友情提醒:下载测试资源存放于免费网盘,不保证资源的长期有效;若有任何一方主张版权,请各管管或版版直接删除本帖,不用任何形式的通知我本人,谢谢。

华声论坛 影音帝国 官方QQ群
影视时空|音乐地带 QQ群:140288348 128111319 42933722
音乐快递QQ群:338549863 原声地带QQ群:344590352
高品质单曲QQ群:116060792 心情音乐QQ群:154659931
心情吟诵QQ群:190584521 音乐播放器QQ群:206520165
 
梦回云阳

回复时间:2020-3-28 15:34
EAC 抓取日志文件

Exact Audio Copy V0.99 prebeta 4 from 23. January 2008

EAC 抓取日志文件从27. 二月 2020, 13:57

群星 / 用101种方式说我爱你CD05

使用驱动器 :MATSHITADVD-RAM UJ8E0 Adapter: 0 ID: 1

读取模式 : 保护
使用精确流 : 是
废除音频缓冲 : 否
使用 C2 指针 : 否

组合读/写偏移校正 : 0
读取 Lead-In 和 Lead-Out : 否
用静音填充抓取中丢失偏移的采样 : 是
去除首尾静音块 : 否
在 CRC 计算中使用了空样本 : 否
已用接口 : Win NT 及 2000 本地 Win32 接口

所用输出格式 : 内部 WAV 函数
样本格式 : 44.100 Hz;16 Bit;立体声


被抓轨 CD 的 TOC

音轨 | 开始 | 长度 | 起始扇区 | 结尾扇区
--------------------------------------------------
1 | 0:00.00 | 3:56.02 | 0 | 17701
2 | 3:56.02 | 4:31.22 | 17702 | 38048
3 | 8:27.24 | 3:37.55 | 38049 | 54378
4 | 12:05.04 | 3:14.37 | 54379 | 68965
5 | 15:19.41 | 2:53.53 | 68966 | 81993
6 | 18:13.19 | 3:40.43 | 81994 | 98536
7 | 21:53.62 | 5:29.49 | 98537 | 123260
8 | 27:23.36 | 4:19.49 | 123261 | 142734
9 | 31:43.10 | 3:55.04 | 142735 | 160363
10 | 35:38.14 | 4:32.57 | 160364 | 180820
11 | 40:10.71 | 5:00.64 | 180821 | 203384
12 | 45:11.60 | 3:59.10 | 203385 | 221319
13 | 49:10.70 | 3:38.32 | 221320 | 237701
14 | 52:49.27 | 4:26.59 | 237702 | 257710
15 | 57:16.11 | 4:58.60 | 257711 | 280120
16 | 62:14.71 | 3:57.18 | 280121 | 297913
17 | 66:12.14 | 4:40.09 | 297914 | 318922


范围状态及错误

已选择范围

文件名 F:\音频抓轨\群星 - 用101种方式说我爱你CD05.wav

峰值电平 99.9 %
范围质量 100.0 %
复制 CRC 1776ABDE
复制成功

没有错误发生

状态报告结尾




----------------------------------------------
友情提醒:下载测试资源存放于免费网盘,不保证资源的长期有效;若有任何一方主张版权,请各管管或版版直接删除本帖,不用任何形式的通知我本人,谢谢。

华声论坛 影音帝国 官方QQ群
影视时空|音乐地带 QQ群:140288348 128111319 42933722
音乐快递QQ群:338549863 原声地带QQ群:344590352
高品质单曲QQ群:116060792 心情音乐QQ群:154659931
心情吟诵QQ群:190584521 音乐播放器QQ群:206520165
 
梦回云阳

回复时间:2020-3-28 15:35
所有音乐仅供测试及试听,音乐版权归原唱片公司所有,任何人不得用于商业用途!




----------------------------------------------
友情提醒:下载测试资源存放于免费网盘,不保证资源的长期有效;若有任何一方主张版权,请各管管或版版直接删除本帖,不用任何形式的通知我本人,谢谢。

华声论坛 影音帝国 官方QQ群
影视时空|音乐地带 QQ群:140288348 128111319 42933722
音乐快递QQ群:338549863 原声地带QQ群:344590352
高品质单曲QQ群:116060792 心情音乐QQ群:154659931
心情吟诵QQ群:190584521 音乐播放器QQ群:206520165
 
走在最前面

回复时间:2020-3-28 15:55
11.我想知道爱是什么
12.驾车旅行
13.我不想论及
14.愚蠢的心眺
15.代表作
16.如果你现在离开我

 
雨水煮茶

回复时间:2020-3-28 15:58
感谢分享

 
moon_will

回复时间:2020-3-28 16:33
多谢分享。。。。。。

 
数码人sah

回复时间:2020-3-28 17:15
感谢分享

 
ruomu

回复时间:2020-3-28 17:19
谢谢楼主分享

 
phua2008

回复时间:2020-3-28 17:31
谢谢楼主分享!

 
etom999

回复时间:2020-3-28 20:21
谢谢分享

 
nature750

回复时间:2020-3-28 21:20
谢谢分享

 
wjtang

回复时间:2020-3-28 22:02
感谢分享

 
wingtam22

回复时间:2020-3-28 23:23
好歌!!多謝分享

 
阿弥托佛

回复时间:2020-3-29 08:37
谢谢分享!




----------------------------------------------

佑天佑地佑人 送福送禄送寿
看经典美图到三晋!



 
阿弥托佛

回复时间:2020-3-29 08:37
谢谢分享!




----------------------------------------------

佑天佑地佑人 送福送禄送寿
看经典美图到三晋!



 
发新帖 新投票
 回帖
查看积分策略说明快速回复主题
你的用户名: 密码:   免费注册(只要30秒)


启用 Html 代码
使用个人签名
(请您文明上网理性发言!并遵守相关规定
   



Processed in 0.052174 s, 8 q - 无图精简版,sitemap,