发新帖  新投票  回帖 
qfcheng

发表时间:2020-4-6 18:25

梅艳芳《女人花 SACD》[正版CD原抓WAV+CUE]



qfcheng 发表在 音乐地带 华声论坛 http://bbs.voc.com.cn/forum-77-1.html

按此在新窗口浏览图片
按此在新窗口浏览图片
按此在新窗口浏览图片

专辑名称:女人花(SACD首批限量版)
专辑艺人:梅艳芳
发行公司:SONY MUSIC
发行时间:2015年02月
资源类型:正版CD抓轨WAV+CUE


专辑简介:

日本压碟SACD (Hybrid)
Super Audio Compact Disc)
首批1000张编码版,日本压碟SACD (Hybrid),限量发行



专辑曲目:

01.女人花
02.一生爱你千百回
03.月光(上弦月版)
04.到明天再做好女人
05.上火
06.我是多么值得爱
07.相爱
08.受不了没有爱情
09.愈爱愈无求
10.月光(下弦月版)

试听 01.女人花
[下载地址]

试听 02.一生爱你千百回
[下载地址]


**** 本内容跟帖回复才可浏览 *****

本帖助威记录

duola09 +1
看了楼主的帖,神马都是浮云
2020-08-09 10:50:21
总计:魅力1点 助威1查看所有助威>>



----------------------------------------------


梦飞音乐的博客
http://blog.sina.com.cn/u/2590775214



 
gaoxuan

回复时间:2020-4-6 18:29
非常好听的音乐,谢谢提供!

 
qfcheng

回复时间:2020-4-6 18:33
Exact Audio Copy V1.0 beta 3 from 29. August 2011

EAC extraction logfile from 6. March 2018, 15:45

梅艳芳 / 女人花 SACD

Used drive : HL-DT-STDVD-ROM GDRH20N Adapter: 2 ID: 1

Read mode : Secure
Utilize accurate stream : Yes
Defeat audio cache : Yes
Make use of C2 pointers : No

Read offset correction : 102
Overread into Lead-In and Lead-Out : No
Fill up missing offset samples with silence : Yes
Delete leading and trailing silent blocks : No
Null samples used in CRC calculations : Yes
Used interface : Native Win32 interface for Win NT & 2000

Used output format : Internal WAV Routines
Sample format : 44.100 Hz; 16 Bit; Stereo


TOC of the extracted CD

Track | Start | Length | Start sector | End sector
---------------------------------------------------------
1 | 0:00.00 | 4:49.23 | 0 | 21697
2 | 4:49.23 | 4:48.41 | 21698 | 43338
3 | 9:37.64 | 4:41.07 | 43339 | 64420
4 | 14:18.71 | 5:26.60 | 64421 | 88930
5 | 19:45.56 | 5:11.20 | 88931 | 112275
6 | 24:57.01 | 3:54.18 | 112276 | 129843
7 | 28:51.19 | 4:02.60 | 129844 | 148053
8 | 32:54.04 | 5:02.73 | 148054 | 170776
9 | 37:57.02 | 5:29.33 | 170777 | 195484
10 | 43:26.35 | 4:18.24 | 195485 | 214858


Range status and errors

Selected range

Filename D:\炫音音乐论坛原抓上传区\梅艳芳-女人花SACD\CDImage.wav

Peak level 100.0 %
Extraction speed 2.0 X
Range quality 100.0 %
Copy CRC AFF8DE9E
Copy OK

No errors occurred


AccurateRip summary

Track 1 not present in database
Track 2 not present in database
Track 3 not present in database
Track 4 not present in database
Track 5 not present in database
Track 6 not present in database
Track 7 not present in database
Track 8 not present in database
Track 9 not present in database
Track 10 not present in database

None of the tracks are present in the AccurateRip database

End of status report

==== Log checksum 5AA70AD0677F04FB56D7FBBD47248DF61F6502AF37F8B80C43848E8E1E50782F ====




----------------------------------------------


梦飞音乐的博客
http://blog.sina.com.cn/u/2590775214



 
w601988

回复时间:2020-4-6 18:46
一键分享




----------------------------------------------
 
yjqz

回复时间:2020-4-6 18:49
谢谢楼主分享啦

 
xiaochannp

回复时间:2020-4-6 18:52
**** 本内容跟帖回复才可浏览 *****

 
329403155

回复时间:2020-4-6 20:17
谢谢分享

 
wjtang

回复时间:2020-4-7 00:34
谢谢楼主分享

 
greatsai

回复时间:2020-4-7 06:26
谢谢分享!

 
阿弥托佛

回复时间:2020-4-7 08:29
谢谢分享!




----------------------------------------------

佑天佑地佑人 送福送禄送寿
看经典美图到三晋!



 
wwzbj

回复时间:2020-4-7 08:29
谢楼主分享

 
绿蓝天使

回复时间:2020-4-7 12:06
非常好听的音乐,谢谢提供!

 
烧不轻

回复时间:2020-4-8 21:48
谢谢分享

 
tzlaobaixing

回复时间:2020-4-9 06:49
非常好听的音乐,谢谢提供

 
一见双刁

回复时间:2020-4-9 07:25
谢谢分享

 
etom999

回复时间:2020-4-9 09:12
谢谢分享

 
cuiyl2015

回复时间:2020-4-9 10:32
甄妮谢谢分享

 
Dongjianguo

回复时间:2020-4-9 12:59

 
放眼天下2016

回复时间:2020-4-9 14:13
谢谢分享!!

 
pgzpgz6188

回复时间:2020-4-14 21:10
收档了

 
发新帖 新投票
 回帖
查看积分策略说明快速回复主题
你的用户名: 密码:   免费注册(只要30秒)


启用 Html 代码
使用个人签名
(请您文明上网理性发言!并遵守相关规定
   



Processed in 0.028998 s, 8 q - 无图精简版,sitemap,