发新帖  新投票  回帖 
qfcheng

发表时间:2020-4-6 18:31

钟明秋《靓声依旧 AQCD》[正版CD低速原抓WAV+CUE]



qfcheng 发表在 音乐地带 华声论坛 http://bbs.voc.com.cn/forum-77-1.html

按此在新窗口浏览图片
按此在新窗口浏览图片
按此在新窗口浏览图片

专辑名称:靓声依旧(紫银合金AQCD)
专辑艺人:钟明秋
发行公司:广东乐升文化传播有限公司
出版公司:广东音像出版有限公司
发行时间:2015年07月
资源类型:正版CD低速原抓WAV+CUE



专辑简介:

高音质紫银合金AQCD,重现黑胶唱片的超凡魅力!
紫银合金AQCD(Analog Quality Compact Disc)采用特别研发的紫色基片,以更耐热,耐光的银合金取代传统的铝质表面涂层,透过精密的技术印制,减少了数字CD光盘的误差,提高了音频重播的精确度,无论现场感,平衡度与细节表现都有了很大的改进,音效表现明显比一般CD优胜,高音质的紫银合金AQCD,重现黑胶唱片的超凡魅力。


特邀HiFi乐坛动人的四大钻石女声--孙露、张玮伽、卡洛儿、彭晓晖倾情对唱,让你遇见不一样的钟明秋;依旧动情的演绎,只为您开启一场惊艳卓绝的全新感官之旅。

推荐

1.匆匆那年-不悔梦归处,只恨太匆匆,熟悉而醉人的旋律,钟明秋的深情演绎向我们娓娓道来歌曲里那个令人心神向往的世界,让我们回到匆匆那年里令人魂牵梦萦的美好时光。
2.全世界宣布爱你-孙露沙哑磁性的声线搭配钟明秋清新温暖的声线,让这首歌曲增添了一点小伤感,更有情感韵味,听起来更触景生情。我们总在未来里怀念曾经,又在后来里流泪从前,精准的道出陈藏的情绪,经历与记忆产生了共鸣。
3.情义两心坚-轻轻柔柔的旋律缓缓倾泻而出,甜美如彭晓晖,温暖深沉如钟明秋,共同演绎一首犹如音乐剧般凄美迷人的港台经典名曲。有一种感情,就是任凭白驹过隙,我们彼此依旧存在对方的心里,即使历经岁月的洗刷,那份情义也不曾改变。


下载压缩包内附高清无码扫描大图


专辑曲目

01.匆匆那年
02.现代爱情故事
03.我的歌声里
04.情义两心坚
05.那些年
06.夏之旅
07.全世界宣布爱你
08.致青春
09.偏偏喜欢你
10.小路
11.谁令你心痴
12.涛声依旧
13.天之大

试听 07.全世界宣布爱你

**** 本内容跟帖回复才可浏览 *****




----------------------------------------------


梦飞音乐的博客
http://blog.sina.com.cn/u/2590775214



 
qfcheng

回复时间:2020-4-6 18:32
试听 07.全世界宣布爱你
[下载地址]




----------------------------------------------


梦飞音乐的博客
http://blog.sina.com.cn/u/2590775214



 
qfcheng

回复时间:2020-4-6 19:01
Exact Audio Copy V1.0 beta 3 from 29. August 2011

EAC 抓取日志文件从15. 十一月 2017, 13:28

钟明秋 / 靓声依旧AQCD

使用驱动器 :SONY DVD-ROM DDU1615 Adapter: 2 ID: 0

读取模式 : 可靠Secure
使用精确流 : 是
清空音频缓存 : 是
使用 C2 指示器 : 否

组合读写偏移校正: : 6
读取 Lead-In 和 Lead-Out : 否
用静音填充抓取中丢失偏移的采样 : 是
去除首尾静音块 : 否
在CRC 计算中使用了空样本 : 是
已用接口 : Win NT 及 2000 本地 Win32 接口

所用输出模式: : 内部 WAV 函数
样本格式 : 44.100 Hz; 16 Bit; 立体声


已抓取 CD 的 TOC

音轨 | 起始 | 长度 | 起始扇区 | 结束扇区
--------------------------------------------
1 | 0:00.00 | 4:06.52 | 0 | 18501
2 | 4:06.52 | 4:53.28 | 18502 | 40504
3 | 9:00.05 | 3:28.21 | 40505 | 56125
4 | 12:28.26 | 3:42.16 | 56126 | 72791
5 | 16:10.42 | 6:03.10 | 72792 | 100026
6 | 22:13.52 | 2:48.66 | 100027 | 112692
7 | 25:02.43 | 4:25.29 | 112693 | 132596
8 | 29:27.72 | 3:10.39 | 132597 | 146885
9 | 32:38.36 | 3:40.48 | 146886 | 163433
10 | 36:19.09 | 3:31.02 | 163434 | 179260
11 | 39:50.11 | 4:54.10 | 179261 | 201320
12 | 44:44.21 | 4:52.12 | 201321 | 223232
13 | 49:36.33 | 4:35.30 | 223233 | 243887


范围状态及错误

已选择范围

文件名 F:\炫音音乐论坛原抓上传区\钟明秋 靓声依旧AQCD\CDImage.wav

峰值电平 100.0 %
抓取速度 3.2 X
范围质量 100.0 %
复制 CRC 7B09E660
复制成功

没有错误发生

状态报告结尾




----------------------------------------------


梦飞音乐的博客
http://blog.sina.com.cn/u/2590775214



 
ucucok

回复时间:2020-4-6 19:22
支持分享!

 
zhong90

回复时间:2020-4-6 20:08
谢谢分享

 
gaoxuan

回复时间:2020-4-6 20:14
谢谢楼主分享,值得收藏!!

 
329403155

回复时间:2020-4-6 20:14
谢谢分享

 
A灬Kin

回复时间:2020-4-6 20:18
谢谢分享

 
wjtang

回复时间:2020-4-7 00:34
谢谢楼主分享

 
看淡人生xwyn

回复时间:2020-4-7 02:54
谢谢楼主分享

 
阿弥托佛

回复时间:2020-4-7 08:33
谢谢分享!




----------------------------------------------

佑天佑地佑人 送福送禄送寿
看经典美图到三晋!



 
960317

回复时间:2020-4-7 14:53
感谢楼主分享

 
花_公子

回复时间:2020-4-7 15:02
谢谢分享

 
onesen

回复时间:2020-4-7 15:02
涛声依旧

 
流水无情ABC

回复时间:2020-4-7 19:39
谢谢分享

 
lizhiqin

回复时间:2020-4-7 19:49
谢谢分享!




----------------------------------------------
你淡定是因为你不怕死 ,我比你淡定是因为我不怕你死。
 
忆江南82

回复时间:2020-4-8 16:43
谢谢分享!

 
zhang7065

回复时间:2020-4-18 15:54
感谢分享

 
chengmenghome29

回复时间:2020-4-18 16:12
谢谢分享

 
phua2008

回复时间:2020-4-18 16:58
谢谢楼主分享!

 
发新帖 新投票
 回帖
查看积分策略说明快速回复主题
你的用户名: 密码:   免费注册(只要30秒)


启用 Html 代码
使用个人签名
(请您文明上网理性发言!并遵守相关规定
   



Processed in 0.031463 s, 8 q - 无图精简版,sitemap,