发新帖  新投票  回帖 
qfcheng

发表时间:2020-5-1 00:17

武曼《偏爱武曼 DSD》[正版CD低速原抓WAV+CUE]



qfcheng 发表在 音乐地带 华声论坛 http://bbs.voc.com.cn/forum-77-1.html

按此在新窗口浏览图片
按此在新窗口浏览图片
按此在新窗口浏览图片


专辑名称:偏爱武曼 DSD
专辑艺人:武曼
出版公司:齐鲁电子音像出版社
唱片公司:天艺文化传播有限公司
条形码:978-7-88441-584-7
发行时间:2018年10月
资源类型:正版CD低速原抓WAV+CUE


专辑简介:

磁性魅力的演唱,带你领略中音的醇厚之美
武曼深度演唱,当时光荏苒,青春不再,让武曼的歌声穿越飞逝的时光,情动心悸。


下载压缩包内附高清无码大图


专辑曲目:

01.没那么简单
02.我们没有在一起
03.爱断情伤
04.随风而逝
05.失落沙洲
06.梅花三弄
07.让每一个人都心碎
08.想要和你飞
09.我的眼睛在下雨
10.Dear Friend
11.听说爱情回过来
12.猜不透
13.花香

试听 01没那么简单
[下载地址]


**** 本内容跟帖回复才可浏览 *****




----------------------------------------------


梦飞音乐的博客
http://blog.sina.com.cn/u/2590775214



 
qfcheng

回复时间:2020-5-1 00:39
Exact Audio Copy V1.3 from 2. September 2016

EAC 抓取日志文件从12. 十一月 2018, 1:06

武曼 / 偏爱

使用驱动器 :HL-DT-STDVD-RAM GH60N Adapter: 1 ID: 0

读取模式 : 可靠Secure
使用精确流 : 是
清空音频缓存 : 是
使用 C2 指示器 : 否

读取偏移校正: : 0
读取 Lead-In 和 Lead-Out : 否
用静音填充抓取中丢失偏移的采样 : 是
去除首尾静音块 : 否
在CRC 计算中使用了空样本 : 是
已用接口 : Win NT 及 2000 本地 Win32 接口

所用输出模式: : 内部 WAV 函数
样本格式 : 44.100 Hz; 16 Bit; 立体声


已抓取 CD 的 TOC

音轨 | 起始 | 长度 | 起始扇区 | 结束扇区
--------------------------------------------
1 | 0:00.00 | 5:16.27 | 0 | 23726
2 | 5:16.27 | 4:44.71 | 23727 | 45097
3 | 10:01.23 | 4:46.28 | 45098 | 66575
4 | 14:47.51 | 4:41.47 | 66576 | 87697
5 | 19:29.23 | 5:01.36 | 87698 | 110308
6 | 24:30.59 | 4:50.17 | 110309 | 132075
7 | 29:21.01 | 5:47.04 | 132076 | 158104
8 | 35:08.05 | 5:14.03 | 158105 | 181657
9 | 40:22.08 | 4:10.52 | 181658 | 200459
10 | 44:32.60 | 3:28.24 | 200460 | 216083
11 | 48:01.09 | 5:39.15 | 216084 | 241523
12 | 53:40.24 | 4:23.26 | 241524 | 261274
13 | 58:03.50 | 4:47.00 | 261275 | 282799


范围状态及错误

已选择范围

文件名 F:\炫音音乐论坛原抓上传区\武曼 - 偏爱.wav

峰值电平 100.0 %
抓取速度 4.4 X
范围质量 100.0 %
复制 CRC FB8CAA2C
复制成功

没有错误发生

状态报告结尾




----------------------------------------------


梦飞音乐的博客
http://blog.sina.com.cn/u/2590775214



 
gaoxuan

回复时间:2020-5-1 00:52
谢谢楼主分享!辛苦了!

 
etom999

回复时间:2020-5-1 06:56
感谢分享

 
阿弥托佛

回复时间:2020-5-1 08:08
谢谢分享!




----------------------------------------------

佑天佑地佑人 送福送禄送寿
看经典美图到三晋!



 
阿弥托佛

回复时间:2020-5-1 08:08
谢谢分享!




----------------------------------------------

佑天佑地佑人 送福送禄送寿
看经典美图到三晋!



 
zmp8g

回复时间:2020-5-1 08:27
感谢分享。

 
960317

回复时间:2020-5-1 10:32
感谢楼主分享

 
xinsong

回复时间:2020-5-1 11:43
谢谢分享!

 
wjtang

回复时间:2020-5-1 12:59
谢谢楼主分享

 
zhong90

回复时间:2020-5-3 17:14
感谢分享

 
yjyclq

回复时间:2020-5-8 07:40
很靓的声音,多谢分享

 
源锋电子2C118

回复时间:2020-5-9 10:31
谢谢分享非常感谢

 
你只属于我abc

回复时间:2020-5-16 22:17
下载了谢谢

 
hdj0053

回复时间:2020-5-27 19:57
谢谢分享!

 
Yanjing20202020

回复时间:2020-7-27 10:44
谢谢分享!必须顶!

 
完善hm

回复时间:2020-8-1 11:57
不熟悉,下来听听。谢谢分享!

 
junjuner

回复时间:2020-8-2 12:06
喜欢

 
赢妇潘金莲

回复时间:2020-8-2 14:52
感谢分享




----------------------------------------------
小赌怡情 大赌伤身 高调做人 低调做事
 
kkf

回复时间:2020-8-2 16:27
感谢分享

 
发新帖 新投票
 回帖
查看积分策略说明快速回复主题
你的用户名: 密码:   免费注册(只要30秒)


启用 Html 代码
使用个人签名
(请您文明上网理性发言!并遵守相关规定
   



Processed in 0.081676 s, 8 q - 无图精简版,sitemap,