发新帖  新投票  回帖 
qfcheng

发表时间:2020-5-10 15:45

群星《刻骨铭心 HQ》[正版CD低速原抓WAV+CUE]



qfcheng 发表在 音乐地带 华声论坛 http://bbs.voc.com.cn/forum-77-1.html

按此在新窗口浏览图片
按此在新窗口浏览图片
按此在新窗口浏览图片

专辑名称:刻骨铭心 HQCD
专辑艺人:群星
制作公司:原声时代有限公司
发行时间:2017年05月
资源格式:正版CD低速原抓WAV+CUE



专辑简介:

经典的音乐,勾起你的回忆,触动心灵


下载压缩包内附高清无码大图


专辑曲目:

01.嫂子颂
02.渴望
03.祝你平安
04.一笑而过
05.女人不是月亮
06.让我再看你一眼
07.干杯朋友
08.真的好想你
09.快乐老家
10.梦里水乡
11.飞天
12.为了谁
13.前门情思大碗茶

试听 11飞天
[下载地址]


**** 本内容跟帖回复才可浏览 *****




----------------------------------------------


梦飞音乐的博客
http://blog.sina.com.cn/u/2590775214



 
qfcheng

回复时间:2020-5-10 16:05
Exact Audio Copy V1.0 beta 3 from 29. August 2011

EAC 抓取日志文件从13. 八月 2017, 9:13

群星 / 原声时代-刻骨铭心

使用驱动器 :SONY DVD-ROM DDU1615 Adapter: 2 ID: 0

读取模式 : 可靠Secure
使用精确流 : 是
清空音频缓存 : 是
使用 C2 指示器 : 否

读取偏移校正: : 15
读取 Lead-In 和 Lead-Out : 否
用静音填充抓取中丢失偏移的采样 : 是
去除首尾静音块 : 否
在CRC 计算中使用了空样本 : 是
已用接口 : Win NT 及 2000 本地 Win32 接口

所用输出模式: : 内部 WAV 函数
样本格式 : 44.100 Hz; 16 Bit; 立体声


已抓取 CD 的 TOC

音轨 | 起始 | 长度 | 起始扇区 | 结束扇区
--------------------------------------------
1 | 0:00.00 | 2:57.74 | 0 | 13348
2 | 2:57.74 | 2:45.42 | 13349 | 25765
3 | 5:43.41 | 4:08.37 | 25766 | 44402
4 | 9:52.03 | 4:38.26 | 44403 | 65278
5 | 14:30.29 | 4:17.04 | 65279 | 84557
6 | 18:47.33 | 4:38.19 | 84558 | 105426
7 | 23:25.52 | 3:25.74 | 105427 | 120875
8 | 26:51.51 | 4:17.24 | 120876 | 140174
9 | 31:09.00 | 4:57.26 | 140175 | 162475
10 | 36:06.26 | 4:37.50 | 162476 | 183300
11 | 40:44.01 | 5:31.50 | 183301 | 208175
12 | 46:15.51 | 4:27.30 | 208176 | 228230
13 | 50:43.06 | 4:35.62 | 228231 | 248917


范围状态及错误

已选择范围

文件名 F:\炫音音乐论坛原抓上传区\原声时代-刻骨铭心\CDImage.wav

可疑位置 0:35:15

峰值电平 100.0 %
抓取速度 2.4 X
范围质量 99.9 %
复制 CRC F90CAA3F
复制结束

出现错误

状态报告结尾




----------------------------------------------


梦飞音乐的博客
http://blog.sina.com.cn/u/2590775214



 
Awakeing

回复时间:2020-5-10 16:49
谢谢分享

 
zyt606

回复时间:2020-5-10 16:53
谢谢分享!

 
52007qq

回复时间:2020-5-10 17:32
谢谢分享

 
谛喃

回复时间:2020-5-10 17:34

 
小猪快快跑

回复时间:2020-5-10 17:54
谢谢分享!

 
yjyclq

回复时间:2020-5-10 19:20
很经典的金曲,多谢分享

 
远上寒山

回复时间:2020-5-10 19:31
名人名歌,很好很好。谢谢分享。

 
960317

回复时间:2020-5-10 19:54
感谢楼主分享

 
发烧是烧钱

回复时间:2020-5-10 19:55
谢谢楼主分享

 
wjtang

回复时间:2020-5-10 21:39
谢谢分享!

 
znml

回复时间:2020-5-10 21:50
谢谢分享!




----------------------------------------------
 
cjb200001

回复时间:2020-5-10 21:51
谢谢分享

 
dhzhaofeng

回复时间:2020-5-10 22:29
谢谢分享谢谢分享谢谢分享谢谢分享

 
小水牛2010

回复时间:2020-5-10 22:48
好听的歌曲,

 
gaoxuan

回复时间:2020-5-10 23:05
音质不错,喜欢,非常感谢,辛苦了!!

 
LX13531

回复时间:2020-5-11 00:42
谢谢老歌重温辑推介

 
6586222

回复时间:2020-5-11 06:30
谢谢分享

 
yjqz

回复时间:2020-5-11 06:38
谢谢楼主分享啦

 
发新帖 新投票
 回帖
查看积分策略说明快速回复主题
你的用户名: 密码:   免费注册(只要30秒)


启用 Html 代码
使用个人签名
(请您文明上网理性发言!并遵守相关规定
   



Processed in 0.019788 s, 8 q - 无图精简版,sitemap,